Доктор Рихтер [1 сезон: 1-24 серии из 24] (2017) HDTVRip от Files-x

Reply to topic
 
Author Message

Nicodem ®

Gender: Male

Longevity: 1 year

Posts: 309

Post 23-Nov-2018 17:19

[Quote]

Доктор Рихтер
Год выпуска: 2017
Жанр: Драма, детектив, медицина, адаптация
Выпущено: Россия, Нон-стоп Продакшн
Режиссер: Андрей Прошкин, Илья Казанков
В ролях: Алексей Серебряков, Дмитрий Ендальцев, Полина Чернышова, Павел Чинарёв, Анна Михалкова, Виталий Хаев, Александр Яценко, Мария Миронова (II), Екатерина Вилкова, Александр Робак, Ирина Пегова, Дарья Екамасова, Полина Ауг, Мария Шалаева, Семён Трескунов, Кирилл Плетнёв, Юлия Пересильд, Анатолий Белый, Александр Галибин, Сахат Дурсунов, Вероника Корниенко, Максим Сапрыкин, Мария Болтнева, Алёна Мордовина, Федя Смирнов (II), Эмилия Климова, Елена Котельникова, Александр Андриенко, Ксения Дорохова, Анна Тараторкина, Александра Никифорова, Сергей Друзьяк, Илья Любимов, Сергей Русскин, Наталья Батрак, Наталья Рогожкина, Павел Табаков, Максим Битюков, Михаил Евланов, Елена Морозова, Светлана Колпакова, Надежда Маркина, Евгения Дмитриева, Наталья Суркова, Екатерина Мельник, Игорь Штернберг, Юрий Ицков, Сергей Губанов, Артём Осипов, Надежда Жарычева, Александр Ефимов, Анна Банщикова, Мария Луговая, Александра Булычёва, Алексей Шевченков, Кирилл Запорожский, Сергей Беляев, Александра Рещикова, Анна Семенович, Михаил Пореченков
О фильме: «Доктор Рихтер» - официальная адаптация культового американского сериала «Доктор Хаус» («House, M.D.»), первый сезон которого вышел на экраны в 2004 году, последний — в 2012 году. Городская клиническая больница № 100. Заведующий лечебно-диагностическим отделением Андрей Александрович Рихтер (Алексей Серебряков) вместе с командой расследует сложные медицинские случаи, с которыми не справились другие врачи. Рихтер – гений своего дела. Правда интересуют его только самые сложные и запутанные случаи – медицинские головоломки. А рутинная работа в больничной поликлинике навевает скуку и раздражает. Из-за «особенностей» характера Рихтер не является любимцем коллег и пациентов: Андрей Александрович замкнут, резок и циничен, склонен к бунтарству. Он не обременяет себя соблюдением правил хорошего тона, и временами кажется, что сочувствие и сострадание ему вовсе чуждо, что, однако, неверно.

Качество: HDTVRip
Видео: XviD, ~ 1555 Кбит/с, 720x400, 25 кадр/с
Аудио: AC3, 2 ch, 192 Кбит/с
Продолжительность: 24 x ~ 00:50:00
Перевод: Не требуется
Cубтитры: нет

Скриншоты


MediaInfo

General
Complete name : C:\Users\DOM\Downloads\Doktor Rihter.2017.HDTVRip.Files-x\01.Doktor Rihter.2017.HDTVRip.Files-x.avi
Format : AVI
Format/Info : Audio Video Interleave
File size : 648 MiB
Duration : 51mn 35s
Overall bit rate : 1 757 Kbps
Writing application : VirtualDubMod 1.5.10.3 | www.virtualdub-fr.org || (build 2550/release)
Writing library : VirtualDubMod build 2550/release
Video
ID : 0
Format : MPEG-4 Visual
Format profile : Advanced Simple@L5
Format settings, BVOP : 1
Format settings, QPel : No
Format settings, GMC : No warppoints
Format settings, Matrix : Custom
Codec ID : XVID
Codec ID/Hint : XviD
Duration : 51mn 35s
Bit rate : 1 555 Kbps
Width : 720 pixels
Height : 400 pixels
Display aspect ratio : 16:9
Frame rate : 25.000 fps
Color space : YUV
Chroma subsampling : 4:2:0
Bit depth : 8 bits
Scan type : Progressive
Compression mode : Lossy
Bits/(Pixel*Frame) : 0.216
Stream size : 574 MiB (89%)
Writing library : XviD 73
Audio
ID : 1
Format : AC-3
Format/Info : Audio Coding 3
Mode extension : CM (complete main)
Codec ID : 2000
Duration : 51mn 35s
Bit rate mode : Constant
Bit rate : 192 Kbps
Channel(s) : 2 channels
Channel positions : Front: L R
Sampling rate : 48.0 KHz
Bit depth : 16 bits
Compression mode : Lossy
Stream size : 70.8 MiB (11%)
Alignment : Split accross interleaves
Interleave, duration : 40 ms (1.00 video frame)
Interleave, preload duration : 500 ms
Релиз от:
[Profile] [PM]
Display posts:    
Reply to topic

Current time is: 07-Dec 23:33

All times are UTC + 3



You cannot post new topics in this forum
You cannot reply to topics in this forum
You cannot edit your posts in this forum
You cannot delete your posts in this forum
You cannot vote in polls in this forum
You cannot attach files in this forum
You cannot download files in this forum