Доктор Рихтер [1 сезон: 1-24 серии из 24] (2017) HDTVRip-AVC от Files-x

Reply to topic
 
Author Message

Nicodem ®

Gender: Male

Longevity: 1 year

Posts: 312

Post 23-Nov-2018 17:34

[Quote]

Доктор Рихтер
Год выпуска: 2017
Жанр: Драма, детектив, медицина, адаптация
Выпущено: Россия, Нон-стоп Продакшн
Режиссер: Андрей Прошкин, Илья Казанков
В ролях: Алексей Серебряков, Дмитрий Ендальцев, Полина Чернышова, Павел Чинарёв, Анна Михалкова, Виталий Хаев, Александр Яценко, Мария Миронова (II), Екатерина Вилкова, Александр Робак, Ирина Пегова, Дарья Екамасова, Полина Ауг, Мария Шалаева, Семён Трескунов, Кирилл Плетнёв, Юлия Пересильд, Анатолий Белый, Александр Галибин, Сахат Дурсунов, Вероника Корниенко, Максим Сапрыкин, Мария Болтнева, Алёна Мордовина, Федя Смирнов (II), Эмилия Климова, Елена Котельникова, Александр Андриенко, Ксения Дорохова, Анна Тараторкина, Александра Никифорова, Сергей Друзьяк, Илья Любимов, Сергей Русскин, Наталья Батрак, Наталья Рогожкина, Павел Табаков, Максим Битюков, Михаил Евланов, Елена Морозова, Светлана Колпакова, Надежда Маркина, Евгения Дмитриева, Наталья Суркова, Екатерина Мельник, Игорь Штернберг, Юрий Ицков, Сергей Губанов, Артём Осипов, Надежда Жарычева, Александр Ефимов, Анна Банщикова, Мария Луговая, Александра Булычёва, Алексей Шевченков, Кирилл Запорожский, Сергей Беляев, Александра Рещикова, Анна Семенович, Михаил Пореченков
О фильме: «Доктор Рихтер» - официальная адаптация культового американского сериала «Доктор Хаус» («House, M.D.»), первый сезон которого вышел на экраны в 2004 году, последний — в 2012 году. Городская клиническая больница № 100. Заведующий лечебно-диагностическим отделением Андрей Александрович Рихтер (Алексей Серебряков) вместе с командой расследует сложные медицинские случаи, с которыми не справились другие врачи. Рихтер – гений своего дела. Правда интересуют его только самые сложные и запутанные случаи – медицинские головоломки. А рутинная работа в больничной поликлинике навевает скуку и раздражает. Из-за «особенностей» характера Рихтер не является любимцем коллег и пациентов: Андрей Александрович замкнут, резок и циничен, склонен к бунтарству. Он не обременяет себя соблюдением правил хорошего тона, и временами кажется, что сочувствие и сострадание ему вовсе чуждо, что, однако, неверно.
Качество: HDTVRip-AVC
Видео: MPEG-4 AVC, ~ 2000 Кбит/с, 1024x576, 25 кадр/с
Аудио: AC3, 2 ch, 192 Кбит/с
Продолжительность: 24 x ~ 00:50:00
Перевод: Не требуется
Cубтитры: нет

Скриншоты


MediaInfo

General
Unique ID : 189625711348072008133956451682860561319 (0x8EA89564EA5DD0A0A08EC6B445AE73A7)
Complete name : C:\Users\DOM\Downloads\Doktor Rihter.(2017).HDTVRip.(AVC).Files-x\01.Doktor Rihter.(2017).HDTVRip.AVC.by.Серый1779.Files-x.mkv
Format : Matroska
File size : 810 MiB
Duration : 51mn 35s
Overall bit rate : 2 194 Kbps
Encoded date : UTC 2017-11-14 07:19:20
Writing application : mkvmerge v7.8.0 ('River Man') 32bit built on Apr 3 2015 12:11:22
Writing library : libebml v1.3.1 + libmatroska v1.4.2
Video
ID : 1
Format : AVC
Format/Info : Advanced Video Codec
Format profile : High@L4.1
Format settings, CABAC : Yes
Format settings, ReFrames : 9 frames
Codec ID : V_MPEG4/ISO/AVC
Duration : 51mn 35s
Bit rate : 2 000 Kbps
Width : 1 024 pixels
Height : 576 pixels
Display aspect ratio : 16:9
Frame rate : 25.000 fps
Color space : YUV
Chroma subsampling : 4:2:0
Bit depth : 8 bits
Scan type : Progressive
Bits/(Pixel*Frame) : 0.136
Stream size : 723 MiB (89%)
Writing library : x264 core 146 r2538 121396c
Encoding settings : cabac=1 / ref=9 / deblock=1:-2:-1 / analyse=0x3:0x133 / me=umh / subme=9 / psy=1 / psy_rd=1.00:0.15 / mixed_ref=1 / me_range=32 / chroma_me=1 / trellis=2 / 8x8dct=1 / cqm=0 / deadzone=21,11 / fast_pskip=0 / chroma_qp_offset=-3 / threads=18 / lookahead_threads=3 / sliced_threads=0 / nr=0 / decimate=1 / interlaced=0 / bluray_compat=0 / constrained_intra=0 / bframes=9 / b_pyramid=2 / b_adapt=2 / b_bias=0 / direct=1 / weightb=1 / open_gop=0 / weightp=2 / keyint=250 / keyint_min=25 / scenecut=40 / intra_refresh=0 / rc=2pass / mbtree=0 / bitrate=2000 / ratetol=1.0 / qcomp=0.60 / qpmin=0 / qpmax=69 / qpstep=4 / cplxblur=20.0 / qblur=0.5 / ip_ratio=1.40 / pb_ratio=1.30 / aq=2:1.00
Color primaries : BT.709-5, BT.1361, IEC 61966-2-4, SMPTE RP177
Transfer characteristics : BT.709-5, BT.1361
Matrix coefficients : BT.709-5, BT.1361, IEC 61966-2-4 709, SMPTE RP177
Audio
ID : 2
Format : AC-3
Format/Info : Audio Coding 3
Mode extension : CM (complete main)
Codec ID : A_AC3
Duration : 51mn 35s
Bit rate mode : Constant
Bit rate : 192 Kbps
Channel(s) : 2 channels
Channel positions : Front: L R
Sampling rate : 48.0 KHz
Bit depth : 16 bits
Compression mode : Lossy
Stream size : 70.8 MiB (9%)
Релиз от:
[Profile] [PM]
Display posts:    
Reply to topic

Current time is: 10-Dec 03:58

All times are UTC + 3



You cannot post new topics in this forum
You cannot reply to topics in this forum
You cannot edit your posts in this forum
You cannot delete your posts in this forum
You cannot vote in polls in this forum
You cannot attach files in this forum
You cannot download files in this forum