Следы в прошлое [1-4 серии из 4] (2018) WEBRip от Files-x

Ответить на тему
 
Автор Сообщение

Nicodem ®

Пол: Мужской

Стаж: 4 месяца 2 дня

Сообщений: 178

Создавать темы 25-Ноя-2018 22:09

[Цитировать]

Следы в прошлое
Год выпуска: 2018
Жанр: Драма, криминал
Выпущено: Россия, Украина, Кинокомпания "Упс"
Режиссер: Дмитрий Матов
В ролях: Виктория Агалакова, Антон Момот, Андрей Аверков, Анна Лебедева, Светлана Шекера, Ефросинья Мельник, Ольга Матешко, Андрей Евсеенко, Валентин Томусяк, Сергей Деньга
О фильме: Талантливый архитектор Юля Грановская после разрыва с женихом возвращается из столицы в свой родной город, устраивается на работу в фирму отчима, Романа Зайцева, в которой когда-то работал главным архитектором ее отец Игорь Грановский. Прошло двенадцать лет с момента исчезновения отца, до сих пор не ясно, где он сейчас. Мать Юли Ольга уверена - ее бывший муж предал их с Юлей, обокрал фирму Зайцева и уехал из города к другой женщине, с которой у него был любовный роман. Полиция разделяет уверенность Ольги. Юля ставит под сомнение официальную версию исчезновения Грановского. После разговора с бывшей секретаршей отца, Юля начинает собственное расследование, еще не подозревая, сколько опасностей ее подстерегает на этом пути...
Качество: WEBRip
Видео: XviD, ~ 1618 Кбит/с, 720x400, 25 кадр/с
Аудио: AC3, 2 ch, 192 Кбит/с
Продолжительность: 4 х 00:46:00
Перевод: Не требуется
Cубтитры: нет

Скриншоты




MediaInfo

General
Complete name : C:\Users\DOM\Desktop\ВИДЕО\Следы в прошлое.(2018).WEBRip.by.Nicodem.Files-x\01.Следы в прошлое.(2018).WEBRip.by.Nicodem.Files-x.avi
Format : AVI
Format/Info : Audio Video Interleave
File size : 600 MiB
Duration : 46mn 5s
Overall bit rate : 1 819 Kbps
Writing application : VirtualDubMod 1.5.10.3 | www.virtualdub-fr.org || (build 2550/release)
Writing library : VirtualDubMod build 2550/release
Video
ID : 0
Format : MPEG-4 Visual
Format profile : Advanced Simple@L5
Format settings, BVOP : 1
Format settings, QPel : No
Format settings, GMC : No warppoints
Format settings, Matrix : Custom
Codec ID : XVID
Codec ID/Hint : XviD
Duration : 46mn 5s
Bit rate : 1 618 Kbps
Width : 720 pixels
Height : 400 pixels
Display aspect ratio : 16:9
Frame rate : 25.000 fps
Color space : YUV
Chroma subsampling : 4:2:0
Bit depth : 8 bits
Scan type : Progressive
Compression mode : Lossy
Bits/(Pixel*Frame) : 0.225
Stream size : 533 MiB (89%)
Writing library : XviD 73
Audio
ID : 1
Format : AC-3
Format/Info : Audio Coding 3
Mode extension : CM (complete main)
Codec ID : 2000
Duration : 46mn 5s
Bit rate mode : Constant
Bit rate : 192 Kbps
Channel(s) : 2 channels
Channel positions : Front: L R
Sampling rate : 48.0 KHz
Bit depth : 16 bits
Compression mode : Lossy
Stream size : 63.3 MiB (11%)
Alignment : Split accross interleaves
Interleave, duration : 40 ms (1.00 video frame)
Interleave, preload duration : 500 ms

Раздача ведётся путём добавления новых серий

Внимание! Раздача ведётся путём добавления новых серий; при каждом добавлении создаётся новый торрент.
Чтобы начать докачку новой серии, пользователям необходимо сделать следующее:
1. Остановить скачивание;
2. Удалить старый торрент у себя из клиента (старые серии удалять не надо);
3. Скачать новый торрент и запустить его у себя в клиенте вместо старого, при этом указать клиенту путь в старую папку куда и должно происходить скачивание новых серий. Ваш клиент при этом должен произвести хеширование (проверку) старой папки и будет докачивать только те серии, которых у вас ещё нет. Старые серии при этом не удаляются, а продолжают раздаваться! Eсли вы уже удалили старые серии, то предотвратить повторную закачку старых серий можно, отжав галочку в соответствующих местах при запуске нового торрента.
Релиз от:

Релиз подготовлен R.G.Files-x

[Профиль] [ЛС]
Показать сообщения:    
Ответить на тему

Текущее время: 20-Мар 13:13

Часовой пояс: UTC + 3



Вы не можете начинать темы
Вы не можете отвечать на сообщения
Вы не можете редактировать свои сообщения
Вы не можете удалять свои сообщения
Вы не можете голосовать в опросах
Вы не можете прикреплять файлы к сообщениям
Вы не можете скачивать файлы