Следы в прошлое [1-4 серии из 4] (2018) WEB-DLRip от Files-x

Reply to topic
 
Author Message

Nicodem ®

Gender: Male

Longevity: 2 years

Posts: 668

Post 25-Nov-2018 22:09

[Quote]

Следы в прошлое
Год выпуска: 2018
Жанр: Драма, криминал
Выпущено: Россия, Украина, Кинокомпания "Упс"
Режиссер: Дмитрий Матов
В ролях: Виктория Агалакова, Антон Момот, Евфросиния Мельник, Андрей Аверков, Анна Лебедева, Ольга Матешко, Сергей Деньга, Алексей Агопьян, Андрей Евсеенко, Сергей Миляев, Евгений Олейник, Вадим Залесский, Светлана Шекера
О фильме: Талантливый архитектор Юля Грановская после разрыва с женихом возвращается из столицы в свой родной город, устраивается на работу в фирму отчима, Романа Зайцева, в которой когда-то работал главным архитектором ее отец Игорь Грановский. Прошло двенадцать лет с момента исчезновения отца, до сих пор не ясно, где он сейчас. Мать Юли Ольга уверена - ее бывший муж предал их с Юлей, обокрал фирму Зайцева и уехал из города к другой женщине, с которой у него был любовный роман. Полиция разделяет уверенность Ольги. Юля ставит под сомнение официальную версию исчезновения Грановского. После разговора с бывшей секретаршей отца, Юля начинает собственное расследование, еще не подозревая, сколько опасностей ее подстерегает на этом пути...

Качество: WEB-DLRip
Видео: XviD, ~ 1588 Кбит/с, 720x400, 25 кадр/с
Аудио: AC3, 2 ch, 192 Кбит/с
Продолжительность: 4 х 00:46:00
Перевод: Не требуется
Cубтитры: нет

Скриншоты


MediaInfo

General
Complete name : C:01.Следы в прошлое.(2018).WEB-DLRip.by.Nicodem.Files-x.avi
Format : AVI
Format/Info : Audio Video Interleave
File size : 590 MiB
Duration : 46mn 5s
Overall bit rate : 1 790 Kbps
Writing application : VirtualDubMod 1.5.10.3 | www.virtualdub-fr.org || (build 2550/release)
Writing library : VirtualDubMod build 2550/release
Video
ID : 0
Format : MPEG-4 Visual
Format profile : Advanced Simple@L5
Format settings, BVOP : 1
Format settings, QPel : No
Format settings, GMC : No warppoints
Format settings, Matrix : Custom
Codec ID : XVID
Codec ID/Hint : XviD
Duration : 46mn 5s
Bit rate : 1 588 Kbps
Width : 720 pixels
Height : 400 pixels
Display aspect ratio : 16:9
Frame rate : 25.000 fps
Color space : YUV
Chroma subsampling : 4:2:0
Bit depth : 8 bits
Scan type : Progressive
Compression mode : Lossy
Bits/(Pixel*Frame) : 0.221
Stream size : 524 MiB (89%)
Writing library : XviD 73
Audio
ID : 1
Format : AC-3
Format/Info : Audio Coding 3
Mode extension : CM (complete main)
Codec ID : 2000
Duration : 46mn 5s
Bit rate mode : Constant
Bit rate : 192 Kbps
Channel(s) : 2 channels
Channel positions : Front: L R
Sampling rate : 48.0 KHz
Bit depth : 16 bits
Compression mode : Lossy
Stream size : 63.3 MiB (11%)
Alignment : Split accross interleaves
Interleave, duration : 40 ms (1.00 video frame)
Interleave, preload duration : 500 ms

Раздача ведётся путём добавления новых серий

Внимание! Раздача ведётся путём добавления новых серий; при каждом добавлении создаётся новый торрент.
Чтобы начать докачку новой серии, пользователям необходимо сделать следующее:
1. Остановить скачивание;
2. Удалить старый торрент у себя из клиента (старые серии удалять не надо);
3. Скачать новый торрент и запустить его у себя в клиенте вместо старого, при этом указать клиенту путь в старую папку куда и должно происходить скачивание новых серий. Ваш клиент при этом должен произвести хеширование (проверку) старой папки и будет докачивать только те серии, которых у вас ещё нет. Старые серии при этом не удаляются, а продолжают раздаваться! Eсли вы уже удалили старые серии, то предотвратить повторную закачку старых серий можно, отжав галочку в соответствующих местах при запуске нового торрента.
Релиз от:

Release was prepared by RG Files-x

[Profile] [PM]

Nicodem ®

Gender: Male

Longevity: 2 years

Posts: 668

Post 26-Feb-2020 15:36 (after 1 year 3 months)

[Quote]

Замена на раздачу без ЛОГО канала
[Profile] [PM]

Dynamo_kh_

Gender: Male

Longevity: 1 year 7 months

Posts: 1

Post 26-Feb-2020 18:52 (after 3 hours)

[Quote]

Станьте на раздачу...
[Profile] [PM]
Display posts:    
Reply to topic

Current time is: 26-Nov 03:33

All times are UTC + 3



You cannot post new topics in this forum
You cannot reply to topics in this forum
You cannot edit your posts in this forum
You cannot delete your posts in this forum
You cannot vote in polls in this forum
You cannot attach files in this forum
You cannot download files in this forum