Следы в прошлое [1-4 серии из 4] (2018) WEBRip-AVC от Files-x

Ответить на тему
 
Автор Сообщение

Серый1779 ®

Пол: Мужской

Стаж: 4 месяца 9 дней

Сообщений: 323

Откуда: Украина

Создавать темы 26-Ноя-2018 01:52

[Цитировать]

Следы в прошлое
Год выпуска: 2018
Жанр: Мелодрама
Выпущено: Россия, Украина, Кинокомпания "Упс"
Режиссер: Дмитрий Матов
В ролях: Виктория Агалакова, Антон Момот, Андрей Аверков, Анна Лебедева, Светлана Шекера, Ефросинья Мельник, Ольга Матешко, Андрей Евсеенко, Валентин Томусяк
О фильме:Талантливый архитектор Юля Грановская после разрыва с женихом возвращается из столицы в свой родной город, устраивается на работу в фирму отчима, Романа Зайцева, в которой когда-то работал главным архитектором ее отец Игорь Грановский. Прошло двенадцать лет с момента исчезновения отца, до сих пор не ясно, где он сейчас. Мать Юли Ольга уверена - ее бывший муж предал их с Юлей, обокрал фирму Зайцева и уехал из города к другой женщине, с которой у него был любовный роман. Полиция разделяет уверенность Ольги. Юля ставит под сомнение официальную версию исчезновения Грановского. После разговора с бывшей секретаршей отца, Юля начинает собственное расследование, еще не подозревая, сколько опасностей ее подстерегает на этом пути...
Качество: WEBRip-AVC
Видео: MPEG-4 AVC, ~ 1600 Кбит/с, 1024x576, 25 кадр/с
Аудио: AC3, 2 ch, 192 Кбит/с
Продолжительность: 4 х ~ 00:46:00
Перевод: Не требуется
Субтитры: нет

Скриншоты


MediaInfo

General
Unique ID : 177472293787481511248388163177397431166 (0x8583EBA542EFD82AA1CC4BAFF2E92B7E)
Complete name : F:\Следы в прошлое.(2018).WEBRip.(AVC).Files-x\01.Следы в прошлое.(2018).WEBRip.(AVC).by.Серый1779.Files-x.mkv
Format : Matroska
Format version : Version 2
File size : 591 MiB
Duration : 46 min 5 s
Overall bit rate : 1 793 kb/s
Encoded date : UTC 2018-11-25 22:00:37
Writing application : mkvmerge v7.8.0 ('River Man') 32bit built on Apr 3 2015 12:11:22
Writing library : libebml v1.3.1 + libmatroska v1.4.2
Video
ID : 1
Format : AVC
Format/Info : Advanced Video Codec
Format profile : High@L4.1
Format settings : CABAC / 9 Ref Frames
Format settings, CABAC : Yes
Format settings, RefFrames : 9 frames
Codec ID : V_MPEG4/ISO/AVC
Duration : 46 min 5 s
Bit rate : 1 600 kb/s
Width : 1 024 pixels
Height : 576 pixels
Display aspect ratio : 16:9
Frame rate mode : Constant
Frame rate : 25.000 FPS
Color space : YUV
Chroma subsampling : 4:2:0
Bit depth : 8 bits
Scan type : Progressive
Bits/(Pixel*Frame) : 0.109
Stream size : 516 MiB (87%)
Writing library : x264 core 146 r2538 121396c
Encoding settings : cabac=1 / ref=9 / deblock=1:-2:-1 / analyse=0x3:0x133 / me=umh / subme=9 / psy=1 / psy_rd=1.00:0.15 / mixed_ref=1 / me_range=32 / chroma_me=1 / trellis=2 / 8x8dct=1 / cqm=0 / deadzone=21,11 / fast_pskip=0 / chroma_qp_offset=-3 / threads=18 / lookahead_threads=3 / sliced_threads=0 / nr=0 / decimate=1 / interlaced=0 / bluray_compat=0 / constrained_intra=0 / bframes=9 / b_pyramid=2 / b_adapt=2 / b_bias=0 / direct=1 / weightb=1 / open_gop=0 / weightp=2 / keyint=250 / keyint_min=25 / scenecut=40 / intra_refresh=0 / rc=2pass / mbtree=0 / bitrate=1600 / ratetol=1.0 / qcomp=0.60 / qpmin=0 / qpmax=69 / qpstep=4 / cplxblur=20.0 / qblur=0.5 / ip_ratio=1.40 / pb_ratio=1.30 / aq=2:1.00
Default : Yes
Forced : No
Color range : Limited
Color primaries : BT.709
Transfer characteristics : BT.709
Matrix coefficients : BT.709
Audio
ID : 2
Format : AC-3
Format/Info : Audio Coding 3
Format settings, Endianness : Big
Codec ID : A_AC3
Duration : 46 min 5 s
Bit rate mode : Constant
Bit rate : 192 kb/s
Channel(s) : 2 channels
Channel positions : Front: L R
Sampling rate : 48.0 kHz
Frame rate : 31.250 FPS (1536 SPF)
Bit depth : 16 bits
Compression mode : Lossy
Stream size : 63.3 MiB (11%)
Service kind : Complete Main
Default : Yes
Forced : No
Релиз от:

Релиз подготовлен R.G.Files-x

[Профиль] [ЛС]
Показать сообщения:    
Ответить на тему

Текущее время: 22-Мар 10:25

Часовой пояс: UTC + 3



Вы не можете начинать темы
Вы не можете отвечать на сообщения
Вы не можете редактировать свои сообщения
Вы не можете удалять свои сообщения
Вы не можете голосовать в опросах
Вы не можете прикреплять файлы к сообщениям
Вы не можете скачивать файлы