Следы в прошлое [1-4 серии из 4] (2018) WEBRip 720p от Files-x

Ответить на тему
 
Автор Сообщение

Nicodem ®

Пол: Мужской

Стаж: 4 месяца 4 дня

Сообщений: 178

Создавать темы 26-Ноя-2018 02:32

[Цитировать]

Следы в прошлое
Год выпуска: 2018
Жанр: Драма, криминал
Выпущено: Россия, Украина, Кинокомпания "Упс"
Режиссер: Дмитрий Матов
В ролях: Виктория Агалакова, Антон Момот, Андрей Аверков, Анна Лебедева, Светлана Шекера, Ефросинья Мельник, Ольга Матешко, Андрей Евсеенко, Валентин Томусяк, Сергей Деньга
О фильме: Талантливый архитектор Юля Грановская после разрыва с женихом возвращается из столицы в свой родной город, устраивается на работу в фирму отчима, Романа Зайцева, в которой когда-то работал главным архитектором ее отец Игорь Грановский. Прошло двенадцать лет с момента исчезновения отца, до сих пор не ясно, где он сейчас. Мать Юли Ольга уверена - ее бывший муж предал их с Юлей, обокрал фирму Зайцева и уехал из города к другой женщине, с которой у него был любовный роман. Полиция разделяет уверенность Ольги. Юля ставит под сомнение официальную версию исчезновения Грановского. После разговора с бывшей секретаршей отца, Юля начинает собственное расследование, еще не подозревая, сколько опасностей ее подстерегает на этом пути...
Качество: WEBRip 720p
Видео: MPEG-4 AVC, ~ 3000 Кбит/с, 1280х720, 25 кадр/с
Аудио: AC3, 2 ch, 192 Кбит/с
Продолжительность: 4 х 00:46:00
Перевод: Не требуется
Cубтитры: нет

Скриншоты



MediaInfo

General
Unique ID : 259790911565825975947705923672268351069 (0xC371E8DAA7F95F72D41593E3B764265D)
Complete name : C:\Users\DOM\Desktop\ВИДЕО\Следы в прошлое.(2018).WEBRip (720p).by.Nicodem.Files-x\01.Следы в прошлое.(2018).WEBRip (720p).by.Nicodem.Files-x.mkv
Format : Matroska
File size : 1.02 GiB
Duration : 46mn 5s
Overall bit rate : 3 181 Kbps
Writing application : Lavf56.36.100
Writing library : Lavf56.36.100
Video
ID : 1
Format : AVC
Format/Info : Advanced Video Codec
Format profile : High@L3.1
Format settings, CABAC : No
Format settings, ReFrames : 2 frames
Format settings, GOP : M=3, N=50
Codec ID : V_MPEG4/ISO/AVC
Duration : 46mn 5s
Bit rate mode : Constant
Bit rate : 3 000 Kbps
Width : 1 280 pixels
Height : 720 pixels
Display aspect ratio : 16:9
Frame rate : 25.000 fps
Standard : PAL
Color space : YUV
Chroma subsampling : 4:2:0
Bit depth : 8 bits
Scan type : Progressive
Bits/(Pixel*Frame) : 0.130
Stream size : 964 MiB (92%)
Language : English
Color primaries : BT.709-5, BT.1361, IEC 61966-2-4, SMPTE RP177
Transfer characteristics : BT.709-5, BT.1361
Matrix coefficients : BT.709-5, BT.1361, IEC 61966-2-4 709, SMPTE RP177
Audio
ID : 2
Format : AC-3
Format/Info : Audio Coding 3
Mode extension : CM (complete main)
Codec ID : A_AC3
Duration : 46mn 5s
Bit rate mode : Constant
Bit rate : 192 Kbps
Channel(s) : 2 channels
Channel positions : Front: L R
Sampling rate : 48.0 KHz
Bit depth : 16 bits
Compression mode : Lossy
Delay relative to video : 1mn 5s
Stream size : 63.3 MiB (6%)
Language : English / un

Раздача ведётся путём добавления новых серий

Внимание! Раздача ведётся путём добавления новых серий; при каждом добавлении создаётся новый торрент.
Чтобы начать докачку новой серии, пользователям необходимо сделать следующее:
1. Остановить скачивание;
2. Удалить старый торрент у себя из клиента (старые серии удалять не надо);
3. Скачать новый торрент и запустить его у себя в клиенте вместо старого, при этом указать клиенту путь в старую папку куда и должно происходить скачивание новых серий. Ваш клиент при этом должен произвести хеширование (проверку) старой папки и будет докачивать только те серии, которых у вас ещё нет. Старые серии при этом не удаляются, а продолжают раздаваться! Eсли вы уже удалили старые серии, то предотвратить повторную закачку старых серий можно, отжав галочку в соответствующих местах при запуске нового торрента.
Релиз от:

Релиз подготовлен R.G.Files-x

[Профиль] [ЛС]
Показать сообщения:    
Ответить на тему

Текущее время: 22-Мар 10:23

Часовой пояс: UTC + 3



Вы не можете начинать темы
Вы не можете отвечать на сообщения
Вы не можете редактировать свои сообщения
Вы не можете удалять свои сообщения
Вы не можете голосовать в опросах
Вы не можете прикреплять файлы к сообщениям
Вы не можете скачивать файлы