2024
Папины дочки. Новые
WEB-DLRip
2024
Папины дочки. Новые
WEB-DL 720p
2024
Сокровища императора
WEBRip 720p
2024
Сокровища императора
WEBRip 1080p
2024
Сокровища императора
WEBRip
2024
Маска
WEBRip
2024
Маска
WEBRip 720p
2024
Постучись в мою дверь в Москве
WEBRip-AVC
2024
Как спасти влюбленную женщину
WEB-DLRip-AVC
2024
Как спасти влюбленную женщину
WEB-DLRip
2024
Маска
HDTV
2023
Великолепная пятерка
WEB-DLRip
2023
Великолепная пятерка
WEB-DL 1080p
2023
Чёрное солнце
WEBRip
2023
За волшебством
WEBRip
2023
Детектив на все руки. Задача со звёздочкой
WEB-DLRip-AVC
2024
Невеста. Экстра любовь
WEBRip
2024
Невеста. Экстра любовь
WEBRip 720p
2024
Невеста. Экстра любовь
WEBRip 1080p
2024
Звёзды
WEBRip 720p
2024
Звёзды
WEBRip
2023
Женский Stand Up
WEBRip
2023
Женский Stand Up
WEBRip 720p
2023
Женский Stand Up
WEBRip 1080p
2023
Детектив на все руки. Задача со звёздочкой
WEB-DLRip
2023
Детектив на все руки. Задача со звёздочкой
WEB-DL 1080p
2024
Новая Битва экстрасенсов
WEBRip
2024
Контрольная для взрослых
WEB-DLRip-AVC
2024
Новая Битва экстрасенсов
WEBRip 720p
2024
Новая Битва экстрасенсов
WEBRip 1080p

Мара. Пожиратель снов / Mara (2018) BDRip 720p | iTunes

Reply to topic
 
Author Message

Monk ®

Gender: Male

Longevity: 5 years 5 months

Posts: 14033

Location: Казань

Post 19-Nov-2018 12:21

[Quote]

Мара. Пожиратель снов / Mara Год выпуска: 2018
Жанр: Ужасы, триллер, криминал
Выпущено: Великобритания, США, Moon River Studios,Grodnik /Aloe Productions,Aloe Entertainment
Режиссер: Клайв Тонг
В ролях: Ольга Куриленко, Хавьер Ботет, Митч Икинс, Лэнс Э. Николс, Рози Феллнер, Дэнди Баррет, Крэйг Конуэй, Мелисса Болона, Кэти МакГроу
О фильме: Кейт Фуллер приписана к расследованию убийства мужчины, которого, как считает полиция, задушила во сне собственная жена. В качестве свидетеля проходит восьмилетняя дочь убитого, Софи. Все дальше углубляясь в это дело, Кейт узнает о существовании древнего демона, убивающего своих жертв во сне. Она испытывает те же чудовищные симптомы и кошмары, поэтому сон становится для неё опасным.

Качество: BDRip 720p
Видео: MPEG-4 AVC, 4544 Kбит/с, 1280x536
Аудио: Русский (AC3, 6 ch, 384 Кбит/с), английский (DTS, 6 ch, 1510 Кбит/с)
Продолжительность: 01:39:04
Перевод: Дублированный [iTunes]
Субтитры: Английские

Скриншоты



MediaInfo

General
Unique ID : 224320400729183956039910491220820135650 (0xA8C289A60F6B0549EB25DF0D98D48EE2)
Complete name : D:\Video111\Mara.2018.BDRip.720p.selezen.mkv
Format : Matroska
Format version : Version 4
File size : 4.46 GiB
Duration : 1 h 39 min
Overall bit rate : 6 439 kb/s
Movie name : Mara 2018 from селезень
Encoded date : UTC 2018-11-17 22:43:00
Writing application : mkvmerge v28.2.0 ('The Awakening') 64-bit
Writing library : libebml v1.3.6 + libmatroska v1.4.9
Video
ID : 1
Format : AVC
Format/Info : Advanced Video Codec
Format profile : High@L4.1
Format settings : CABAC / 9 Ref Frames
Format settings, CABAC : Yes
Format settings, ReFrames : 9 frames
Codec ID : V_MPEG4/ISO/AVC
Duration : 1 h 39 min
Bit rate : 4 544 kb/s
Width : 1 280 pixels
Height : 536 pixels
Display aspect ratio : 2.40:1
Frame rate mode : Constant
Frame rate : 23.976 (24000/1001) FPS
Color space : YUV
Chroma subsampling : 4:2:0
Bit depth : 8 bits
Scan type : Progressive
Bits/(Pixel*Frame) : 0.276
Stream size : 3.14 GiB (71%)
Title : CHD
Writing library : x264 core 155 r2867+74 66b5600 t_mod_Custom_2 [8-bit@all X86_64]
Encoding settings : cabac=1 / ref=9 / deblock=1:-3:-3 / analyse=0x3:0x113 / me=umh / subme=10 / psy=1 / fade_compensate=0.00 / psy_rd=0.90:0.10 / mixed_ref=1 / me_range=32 / chroma_me=1 / trellis=2 / 8x8dct=1 / cqm=0 / deadzone=21,11 / fast_pskip=0 / chroma_qp_offset=-2 / threads=12 / lookahead_threads=2 / sliced_threads=0 / nr=0 / decimate=1 / interlaced=0 / bluray_compat=0 / constrained_intra=0 / fgo=0 / bframes=8 / b_pyramid=2 / b_adapt=2 / b_bias=0 / direct=3 / weightb=1 / open_gop=0 / weightp=2 / keyint=250 / keyint_min=23 / scenecut=40 / intra_refresh=0 / rc_lookahead=40 / rc=crf / mbtree=0 / crf=17.0000 / qcomp=0.70 / qpmin=0:0:0 / qpmax=69:69:69 / qpstep=4 / vbv_maxrate=30000 / vbv_bufsize=30000 / crf_max=0.0 / nal_hrd=none / filler=0 / ip_ratio=1.40 / pb_ratio=1.30 / aq=3:0.90 / aq-sensitivity=10.00 / aq-factor=1.00:1.00:1.00 / aq2=0 / aq3=2:[0.50:0.50]:[0.50:0.50]:[0.50:0.50]:[0.50:0.50] / aq3-sensitivity=10.00 / aq3-factor=[1.00:1.00]:[1.00:1.00]:[1.00:1.00] / aq3-boundary=192:64:24
Language : English
Default : Yes
Forced : No
Color range : Limited
Matrix coefficients : BT.709
Audio #1
ID : 2
Format : AC-3
Format/Info : Audio Coding 3
Commercial name : Dolby Digital
Codec ID : A_AC3
Duration : 1 h 38 min
Bit rate mode : Constant
Bit rate : 384 kb/s
Channel(s) : 6 channels
Channel layout : L R C LFE Ls Rs
Sampling rate : 48.0 kHz
Frame rate : 31.250 FPS (1536 SPF)
Bit depth : 16 bits
Compression mode : Lossy
Stream size : 272 MiB (6%)
Title : iTunes
Language : Russian
Service kind : Complete Main
Default : Yes
Forced : Yes
Audio #2
ID : 3
Format : DTS
Format/Info : Digital Theater Systems
Codec ID : A_DTS
Duration : 1 h 39 min
Bit rate mode : Constant
Bit rate : 1 509 kb/s
Channel(s) : 6 channels
Channel layout : C L R Ls Rs LFE
Sampling rate : 48.0 kHz
Frame rate : 93.750 FPS (512 SPF)
Bit depth : 24 bits
Compression mode : Lossy
Stream size : 1.04 GiB (23%)
Title : Original
Language : English
Default : No
Forced : No
Text
ID : 4
Format : UTF-8
Codec ID : S_TEXT/UTF8
Codec ID/Info : UTF-8 Plain Text
Duration : 1 h 33 min
Bit rate : 41 b/s
Count of elements : 963
Stream size : 28.5 KiB (0%)
Title : SDH
Language : English
Default : No
Forced : No
Menu
00:00:00.000 : :00:00:00.000
00:05:37.504 : :00:05:37.504
00:12:59.904 : :00:12:59.904
00:17:48.317 : :00:17:48.317
00:24:14.870 : :00:24:14.870
00:29:21.301 : :00:29:21.301
00:38:57.710 : :00:38:57.710
00:43:11.214 : :00:43:11.214
00:49:14.869 : :00:49:14.869
00:55:35.207 : :00:55:35.207
01:03:00.944 : :01:03:00.944
01:06:02.500 : :01:06:02.500
01:15:13.092 : :01:15:13.092
01:23:41.725 : :01:23:41.725
01:28:35.101 : :01:28:35.101
01:31:52.507 : :01:31:52.507
[Profile] [PM]
Display posts:    
Reply to topic

Current time is: 15-Apr 22:00

All times are UTC + 3



You cannot post new topics in this forum
You cannot reply to topics in this forum
You cannot edit your posts in this forum
You cannot delete your posts in this forum
You cannot vote in polls in this forum
You cannot attach files in this forum
You cannot download files in this forum