Discovery. Стальные парни / Steel Buddies [6 сезон: 1-5 серии] (2018) HDTVRip от GeneralFilm

Reply to topic
 
Author Message

Starik60 ®

Деактивирован

Gender: Male

Longevity: 5 years 8 months

Posts: 278

Location: Москва, Россия

Post 29-Aug-2020 14:16

[Quote]

Стальные парни / Steel Buddies
Год выпуска: 2018
Жанр: Документальный, техника
Выпущено: Германия, Discovery Channel
В ролях: Майкл Манусакис
О фильме: Немецкая команда, возглавляемая Михаэлем Манусакисом, с удовольствием превращает любую старую военную технику – от бронетранспортёров и пожарных машин до внедорожников – в удобный и стильный личный транспорт. О том, как они это делают, рассказывает программа Discovery Channel «Стальные парни», которая представляет второй сезон. Михаэль Манусакис – житель тихого немецкого городка Вестервальд. Вместе со своими единомышленниками он создал команду из лучших в Европе специалистов по устаревшей военной технике. Манусакису удалось заключить договор, согласно которому отжившие свое разведывательные машины, грузовики, внедорожники, бронетранспортеры, вездеходы – словом, все, что списывается в Европе американской армией, – достается именно Манусакису. Компанию Михаэля Morlock-Motors называют самой безумной автофирмой в Германии, и это правда: ее работникам иногда приходится искать детали даже на городских автосвалках, однако игра стоит свеч. По словам Михаэля, их переделанная военная техника пользуется прямо-таки бешенной популярностью: мощные и при этом комфортные бронированные машины обретают индивидуальный дизайн в соответствии со всеми требованиями своих «гражданских» владельцев.

Официальный сайт
Качество: HDTVRip
Видео: XviD, ~ 1600 Кбит/с, 720x400, 25 кадр/с
Аудио: AC3, 2 ch, 192 Кбит/c
Продолжительность: 5 x ~ 00:44:00
Перевод: Профессиональный (одноголосый, закадровый)

Скриншоты





MediaInfo


General
Complete name : G:\Раздачи 2\Стальные парни S06 GeneralFilm\01 Стальные парни by Starik60.GeneralFilm.avi
Format : AVI
Format/Info : Audio Video Interleave
File size : 569 MiB
Duration : 44 min 7 s
Overall bit rate : 1 802 kb/s
Writing application : VirtualDubMod 1.5.10.3 | www.virtualdub-fr.org || (build 2550/release)
Writing library : VirtualDubMod build 2550/release
Video
ID : 0
Format : MPEG-4 Visual
Format profile : Advanced Simple@L5
Format settings : BVOP1 / Custom Matrix
Format settings, BVOP : 1
Format settings, QPel : No
Format settings, GMC : No warppoints
Format settings, Matrix : Custom
Codec ID : XVID
Codec ID/Hint : XviD
Duration : 44 min 7 s
Bit rate : 1 600 kb/s
Width : 720 pixels
Height : 400 pixels
Display aspect ratio : 16:9
Frame rate : 25.000 FPS
Color space : YUV
Chroma subsampling : 4:2:0
Bit depth : 8 bits
Scan type : Progressive
Compression mode : Lossy
Bits/(Pixel*Frame) : 0.222
Stream size : 505 MiB (89%)
Writing library : XviD 73
Audio
ID : 1
Format : AC-3
Format/Info : Audio Coding 3
Commercial name : Dolby Digital
Codec ID : 2000
Duration : 44 min 7 s
Bit rate mode : Constant
Bit rate : 192 kb/s
Channel(s) : 2 channels
Channel layout : L R
Sampling rate : 48.0 kHz
Frame rate : 31.250 FPS (1536 SPF)
Bit depth : 16 bits
Compression mode : Lossy
Stream size : 60.6 MiB (11%)
Alignment : Split accross interleaves
Interleave, duration : 40 ms (1.00 video frame)
Interleave, preload duratio : 500 ms
Service kind : Complete Main

Внимание! Раздача ведётся путём добавления новых серий!


Внимание! Раздача ведётся путём добавления новых серий; при каждом добавлении создfётся новый торрент. Чтобы начать докачку новой серии, пользователям необходимо сделать следующее: (1) остановить скачивание, (2) удалить старый торрент у себя из клиента (старые серии удалять не надо), (3) скачать новый торрент и запустить его у себя в клиенте вместо старого, при этом указать клиенту путь в старую папку куда и должно происходить скачивание новых серий.
Ваш клиент при этом должен произвести хеширование (проверку) старой папки (если не производит сам - помогите ему сделать это), и будет докачивать только те серии которых у вас ещё нет. Старые серии при этом не удаляются, а продолжают раздаваться!
Eсли вы уже удалили старые серии, то предотвратить повторную закачку старых серий можно, отжав галочку в соответсвующих местах при запуске нового торрента.
Благодарю за отличный постер ValkiriaGF
Релиз от:
Related releases "Discovery" (10):
Added Topic title Size
17 Oct 20  Discovery. Смертельный улов: Дорогой отца / Deadliest Catch: Bloodline [1 сезон: 1-6 серии из 6] (2020) HDTV 1080p от GeneralFilm 13.82 GB
17 Oct 20  Discovery. Смертельный улов: Дорогой отца / Deadliest Catch: Bloodline [1 сезон: 1-6 серии из 6] (2020) HDTVRip 720p от GeneralFilm 7.7 GB
17 Oct 20  Discovery. Смертельный улов: Дорогой отца / Deadliest Catch: Bloodline [1 сезон: 1-6 серии из 6] (2020) HDTVRip от GeneralFilm 3.32 GB
1 Oct 20  Discovery. Битва самогонщиков / Master Distiller [1-5 серии из 5] (2020) HDTVRip от GeneralFilm 2.78 GB
1 Oct 20  Discovery. Дальнобойщик в Индонезии / Ciezarowka Prezez Indonezje [1-5 серии] (2020) HDTVRip 720p от GeneralFilm 6.17 GB
30 Sep 20  Discovery. Стальные парни / Steel Buddies [6 сезон: 1-5 серии] (2018) HDTVRip 720p от GeneralFilm 6.45 GB
30 Sep 20  Discovery. Аляска: семья из леса / Alaskan Bush People [9 сезон: 1-5 серии] (2020) HDTVRip 720p от GeneralFilm 6.43 GB
30 Sep 20  Discovery. Аляска: семья из леса / Alaskan Bush People [9 сезон: 1-5 серии] (2020) HDTVRip от GeneralFilm 2.77 GB
25 Sep 20  Discovery: Золотой путь Паркера Шнабеля / Gold rush Parkers trail [4 сезон: 1-5 серии из 9] (2020) HDTVRip 720p от GeneralFilm 1 6.75 GB
25 Sep 20  Discovery: Золотой путь Паркера Шнабеля / Gold rush Parkers trail [4 сезон: 1-5 серии из 9] (2020) HDTVRip от GeneralFilm 2.78 GB
Find all related releases Discovery
[Profile] [PM]
Display posts:    
Reply to topic

Current time is: 20-Jul 16:36

All times are UTC + 3



You cannot post new topics in this forum
You cannot reply to topics in this forum
You cannot edit your posts in this forum
You cannot delete your posts in this forum
You cannot vote in polls in this forum
You cannot attach files in this forum
You cannot download files in this forum