Discovery. Стальные парни / Steel Buddies [6 сезон: 1-5 серии] (2018) HDTVRip 720р от GeneralFilm

Reply to topic
 
Author Message

Starik60 ®

Деактивирован

Gender: Male

Longevity: 5 years 3 months

Posts: 278

Location: Москва, Россия

Post 29-Aug-2020 14:52

[Quote]

Стальные парни / Steel Buddies
Год выпуска: 2018
Жанр: Документальный, техника
Выпущено: Германия, Discovery Channel
В ролях: Майкл Манусакис
О фильме: Немецкая команда, возглавляемая Михаэлем Манусакисом, с удовольствием превращает любую старую военную технику – от бронетранспортёров и пожарных машин до внедорожников – в удобный и стильный личный транспорт. О том, как они это делают, рассказывает программа Discovery Channel «Стальные парни», которая представляет второй сезон. Михаэль Манусакис – житель тихого немецкого городка Вестервальд. Вместе со своими единомышленниками он создал команду из лучших в Европе специалистов по устаревшей военной технике. Манусакису удалось заключить договор, согласно которому отжившие свое разведывательные машины, грузовики, внедорожники, бронетранспортеры, вездеходы – словом, все, что списывается в Европе американской армией, – достается именно Манусакису. Компанию Михаэля Morlock-Motors называют самой безумной автофирмой в Германии, и это правда: ее работникам иногда приходится искать детали даже на городских автосвалках, однако игра стоит свеч. По словам Михаэля, их переделанная военная техника пользуется прямо-таки бешенной популярностью: мощные и при этом комфортные бронированные машины обретают индивидуальный дизайн в соответствии со всеми требованиями своих «гражданских» владельцев.

Официальный сайт
Качество: HDTVRip 720p
Видео: MPEG-4 AVC, ~ 4000 Кбит/с, 1280x720
Аудио: MP2, 2 ch, 192 Кбит/с
Продолжительность: 5 x ~ 00:44:00
Перевод: Профессиональный (одноголосый, закадровый)

Скриншоты




MediaInfo


General
Unique ID : 227257058450358407562010131211551924981 (0xAAF81E0D8D5EAE8BB774B0EE619A62F5)
Complete name : G:\Раздачи\Стальные парни S06 720p GeneralFilm\01 Стальные парни by Starik60 GeneralFilm.mkv
Format : Matroska
Format version : Version 4
File size : 1.30 GiB
Duration : 44 min 15 s
Overall bit rate mode : Constant
Overall bit rate : 4 196 kb/s
Encoded date : UTC 2020-08-29 11:23:29
Writing application : mkvmerge v7.8.0 ('River Man') 64bit built on Mar 27 2015 16:31:37
Writing library : libebml v1.3.1 + libmatroska v1.4.2 / Lavf54.63.104
Cover : Yes
Attachments : cover7.jpg
Video
ID : 1
Format : AVC
Format/Info : Advanced Video Codec
Format profile : High@L4.1
Format settings : CABAC / 3 Ref Frames
Format settings, CABAC : Yes
Format settings, Reference : 3 frames
Codec ID : V_MPEG4/ISO/AVC
Duration : 44 min 15 s
Bit rate mode : Constant
Bit rate : 4 000 kb/s
Width : 1 280 pixels
Height : 720 pixels
Display aspect ratio : 16:9
Frame rate mode : Constant
Frame rate : 50.000 FPS
Standard : PAL
Color space : YUV
Chroma subsampling : 4:2:0
Bit depth : 8 bits
Scan type : Progressive
Bits/(Pixel*Frame) : 0.087
Stream size : 1.24 GiB (95%)
Default : No
Forced : No
Color range : Limited
Color primaries : BT.709
Transfer characteristics : BT.709
Matrix coefficients : BT.709
Audio
ID : 2
Format : MPEG Audio
Format version : Version 1
Format profile : Layer 2
Codec ID : A_MPEG/L2
Codec ID/Hint : MP2
Duration : 44 min 15 s
Bit rate mode : Constant
Bit rate : 192 kb/s
Channel(s) : 2 channels
Sampling rate : 48.0 kHz
Frame rate : 41.667 FPS (1152 SPF)
Compression mode : Lossy
Delay relative to video : 12 ms
Stream size : 60.8 MiB (5%)
Language : English
Default : Yes
Forced : No

Внимание! Раздача ведётся путём добавления новых серий!


Внимание! Раздача ведётся путём добавления новых серий; при каждом добавлении создfётся новый торрент. Чтобы начать докачку новой серии, пользователям необходимо сделать следующее: (1) остановить скачивание, (2) удалить старый торрент у себя из клиента (старые серии удалять не надо), (3) скачать новый торрент и запустить его у себя в клиенте вместо старого, при этом указать клиенту путь в старую папку куда и должно происходить скачивание новых серий.
Ваш клиент при этом должен произвести хеширование (проверку) старой папки (если не производит сам - помогите ему сделать это), и будет докачивать только те серии которых у вас ещё нет. Старые серии при этом не удаляются, а продолжают раздаваться!
Eсли вы уже удалили старые серии, то предотвратить повторную закачку старых серий можно, отжав галочку в соответсвующих местах при запуске нового торрента.
Благодарю за отличный постер ValkiriaGF
Релиз от:
Related releases "Discovery" (10):
Added Topic title Size
17 Oct 20  Discovery. Смертельный улов: Дорогой отца / Deadliest Catch: Bloodline [1 сезон: 1-6 серии из 6] (2020) HDTV 1080p от GeneralFilm 13.82 GB
17 Oct 20  Discovery. Смертельный улов: Дорогой отца / Deadliest Catch: Bloodline [1 сезон: 1-6 серии из 6] (2020) HDTVRip 720p от GeneralFilm 7.7 GB
17 Oct 20  Discovery. Смертельный улов: Дорогой отца / Deadliest Catch: Bloodline [1 сезон: 1-6 серии из 6] (2020) HDTVRip от GeneralFilm 3.32 GB
1 Oct 20  Discovery. Битва самогонщиков / Master Distiller [1-5 серии из 5] (2020) HDTVRip от GeneralFilm 2.78 GB
1 Oct 20  Discovery. Дальнобойщик в Индонезии / Ciezarowka Prezez Indonezje [1-5 серии] (2020) HDTVRip 720p от GeneralFilm 6.17 GB
30 Sep 20  Discovery. Стальные парни / Steel Buddies [6 сезон: 1-5 серии] (2018) HDTVRip от GeneralFilm 2.77 GB
30 Sep 20  Discovery. Аляска: семья из леса / Alaskan Bush People [9 сезон: 1-5 серии] (2020) HDTVRip 720p от GeneralFilm 6.43 GB
30 Sep 20  Discovery. Аляска: семья из леса / Alaskan Bush People [9 сезон: 1-5 серии] (2020) HDTVRip от GeneralFilm 2.77 GB
25 Sep 20  Discovery: Золотой путь Паркера Шнабеля / Gold rush Parkers trail [4 сезон: 1-5 серии из 9] (2020) HDTVRip 720р от GeneralFilm 1 6.75 GB
25 Sep 20  Discovery: Золотой путь Паркера Шнабеля / Gold rush Parkers trail [4 сезон: 1-5 серии из 9] (2020) HDTVRip от GeneralFilm 2.78 GB
Find all related releases Discovery
[Profile] [PM]
Display posts:    
Reply to topic

Current time is: 01-Mar 11:16

All times are UTC + 3



You cannot post new topics in this forum
You cannot reply to topics in this forum
You cannot edit your posts in this forum
You cannot delete your posts in this forum
You cannot vote in polls in this forum
You cannot attach files in this forum
You cannot download files in this forum