Беспринципные [1-4 сезон: 1-32 серии из 32] (2020-2024) WEB-DLRip от Files-x

Reply to topic
 
Author Message

papa1951deda ®

Gender: Male

Longevity: 5 years 6 months

Posts: 1726

Location: Казахстан

Post 19-Nov-2021 17:53

[Quote]

Беспринципные Год выпуска: 2020-2024
Выпущено: Комедия, экранизация
Режиссер: Роман Прыгунов
В ролях: Павел Деревянко, Ингеборга Дапкунайте, Максим Виторган, Оксана Акиньшина, Николай Фоменко, Аглая Тарасова, Павел Табаков, Юрий Колокольников, Надежда Михалкова, Кристина Бабушкина, Мария Шалаева, Дмитрий Муляр, Александр Семёнов (III), Юрий Батурин
О фильме: Добро пожаловать на Патриаршие. Смешные и волнующие подробности личной жизни богатых москвичей, которые, как и все, попадают в неловкие ситуации. Правда, ситуации у них не самые обычные... Жена чувствует себя виноватой, познакомившись с любовницей мужа. Муж прикрывается выдуманной дочерью друга. А друг толкает помощника на измену, потому что так хочет жена. И это только начало. Одним словом, неприличные истории о приличных, казалось бы, людях.
Качество: WEB-DLRip
Видео: XviD, ~ 1600 Кбит/с, 720x304, 25 кадр/с
Аудио: AC3, 2 ch, 192 Кбит/с, | Версия 18+ 1-ый сезон
Аудио: AC3, 6 ch, 448 Кбит/с | Версия 18+ 2-ой сезон
Продолжительность: 30 x ~ 00:50:00
Перевод: Не требуется [Русский]
Субтитры: Русские (в 2-ом сезоне)

Скриншоты



MediaInfo

General
Complete name : E:\моё видио\Беспринципные..S01-S02.(2020-2021).WEB-DLRip.Files-x\1-ый сезон\02. Беспринципные..S01.(2020).WEB-DLRip.Files-x.avi
Format : AVI
Format/Info : Audio Video Interleave
File size : 613 MiB
Duration : 47 min 35 s
Overall bit rate : 1 802 kb/s
Writing application : VirtualDubMod 1.5.10.3 | www.virtualdub-fr.org || (build 2550/release)
Writing library : VirtualDubMod build 2550/release
IsTruncated : Yes
Video
ID : 0
Format : MPEG-4 Visual
Codec ID : XVID
Codec ID/Hint : XviD
Duration : 47 min 35 s
Source duration : 27 min 9 s
Bit rate : 233 Mb/s
Width : 720 pixels
Height : 304 pixels
Display aspect ratio : 2.35:1
Frame rate : 25.000 FPS
Color space : YUV
Chroma subsampling : 4:2:0
Compression mode : Lossy
Bits/(Pixel*Frame) : 42.510
Stream size : 44.1 GiB
Audio
ID : 1
Format : AC-3
Format/Info : Audio Coding 3
Commercial name : Dolby Digital
Codec ID : 2000
Duration : 47 min 35 s
Source duration : 251 h
Bit rate mode : Constant
Bit rate : 192 kb/s
Channel(s) : 2 channels
Channel layout : L R
Sampling rate : 48.0 kHz
Frame rate : 31.250 FPS (1536 SPF)
Compression mode : Lossy
Delay relative to video : 4 ms
Stream size : 20.2 GiB
Alignment : Split across interleaves
Interleave, duration : 40 ms (1.00 video frame)
Interleave, preload duration : 500 ms
Service kind : Complete Main
General
Complete name : E:\моё видио\Беспринципные..S01-S02.(2020-2021).WEB-DLRip.Files-x\2-ой сезон\01. Беспринципные..S02.(2021).WEB-DLRip.Files-x.avi
Format : AVI
Format/Info : Audio Video Interleave
File size : 862 MiB
Duration : 59 min 6 s
Overall bit rate : 2 039 kb/s
Writing application : VirtualDubMod 1.5.10.3 | www.virtualdub-fr.org || (build 2550/release)
Writing library : VirtualDubMod build 2550/release
Video
ID : 0
Format : MPEG-4 Visual
Format profile : Advanced Simple@L5
Format settings : BVOP1 / Custom Matrix
Format settings, BVOP : 1
Format settings, QPel : No
Format settings, GMC : No warppoints
Format settings, Matrix : Custom
Codec ID : XVID
Codec ID/Hint : XviD
Duration : 59 min 6 s
Bit rate : 1 581 kb/s
Width : 720 pixels
Height : 304 pixels
Display aspect ratio : 2.35:1
Frame rate : 25.000 FPS
Color space : YUV
Chroma subsampling : 4:2:0
Bit depth : 8 bits
Scan type : Progressive
Compression mode : Lossy
Bits/(Pixel*Frame) : 0.289
Stream size : 669 MiB (78%)
Writing library : XviD 73
Audio
ID : 1
Format : AC-3
Format/Info : Audio Coding 3
Commercial name : Dolby Digital
Codec ID : 2000
Duration : 59 min 6 s
Bit rate mode : Constant
Bit rate : 448 kb/s
Channel(s) : 6 channels
Channel layout : L R C LFE Ls Rs
Sampling rate : 48.0 kHz
Frame rate : 31.250 FPS (1536 SPF)
Compression mode : Lossy
Stream size : 189 MiB (22%)
Alignment : Split across interleaves
Interleave, duration : 40 ms (1.00 video frame)
Interleave, preload duration : 500 ms
Service kind : Complete Main

Внимание! Раздача ведётся путём добавления новых серий

Раздача ведётся путём добавления новых серий, при каждом добавлении создаётся новый торрент. Чтобы начать докачку новой серии, пользователям необходимо сделать следующее:
- Остановить скачивание.
- Удалить старый торрент у себя из клиента (старые серии удалять не надо).
- Скачать новый торрент и запустить его у себя в клиенте вместо старого, при этом указать клиенту путь в старую папку куда и должно происходить скачивание новых серий.
Ваш клиент при этом должен произвести хеширование (проверку) старой папки (если не производит сам - помогите ему сделать это), и будет докачивать только те серии которых у вас ещё нет. Старые серии при этом не удаляются, а продолжают раздаваться!
Релиз от:

Release was prepared by RG Files-x

[Profile] [PM]
Display posts:    
Reply to topic

Current time is: 31-May 00:52

All times are UTC + 3



You cannot post new topics in this forum
You cannot reply to topics in this forum
You cannot edit your posts in this forum
You cannot delete your posts in this forum
You cannot vote in polls in this forum
You cannot attach files in this forum
You cannot download files in this forum