Беспринципные [4 сезон: 1-8 серии из 8] (2024) WEB-DLRip-AVC от Generalfilm | КПК

Reply to topic
 
Author Message

GORGIK ®

Gender: Male

Longevity: 5 years 6 months

Posts: 1535

Location: СССР

Post 18-Apr-2024 09:27

[Quote]

Беспринципные Год выпуска: 2024
Жанр: Комедия
Выпущено: Россия, Кинокомпания "Медиаслово", "Плюс Студия"
Режиссер: Роман Прыгунов
В ролях: Павел Деревянко, Павел Табаков, Аглая Тарасова, Николай Фоменко, Кристина Бабушкина, Юрий Колокольников, Надежда Михалкова, Марина Доможирова, Александр Балуев, Ирина Пегова, Максим Лагашкин, Милош Бикович, Анна Слю, Матвей Лыков, Ксения Утехина
О фильме: У Славика в жизни сплошная турбулентность: развод с Людой, новая любовь, но старые слабости. Генерал Хадяков переживает вторую молодость, пока Валя строит карьеру певицы вместе с хитрым продюсером. Паша и Юля продолжают искать лёгкие деньги, а Рома и Вера - воспитывать ребёнка и друг друга в момент, когда в их жизни появляется иностранец Стефан. Тем временем из деревни на Патрики перебираются Алёнка и её родители, которым столичная жизнь тоже оказывается очень по вкусу...

Качество: WEB-DLRip-AVC
Видео: MPEG-4 AVC (x264), 640x272, ~500 kbps, 25.000 fps
Аудио: AAC LC, 48.0 KHz, 2 ch, 128 Kbps
Продолжительность: 8 x ~ 01:04:00
Перевод: Не требуется [Русский]
Cубтитры: Русские, внешние
Внимание! Присутствует ненормативная лексика

Скриншоты


MediaInfo

General
Complete name : D:\кино\Besprincipnye.S04.2024.WEB-DLRip-AVC.KPK.GF\Besprincipnye.s04e01.2024.WEB-DLRip-AVC.KPK.GF.mp4
Format : MPEG-4
Codec ID : M4V (isom/iso2/avc1)
File size : 293 MiB
Duration : 1h 4mn
Overall bit rate mode : Variable
Overall bit rate : 634 Kbps
Writing application : Lavf53.19.0
Video
ID : 1
Format : AVC
Format/Info : Advanced Video Codec
Format profile : High@L4.1
Format settings, CABAC : Yes
Format settings, ReFrames : 8 frames
Codec ID : avc1
Codec ID/Info : Advanced Video Coding
Duration : 1h 4mn
Bit rate : 500 Kbps
Width : 640 pixels
Height : 272 pixels
Display aspect ratio : 2.35:1
Frame rate mode : Constant
Frame rate : 25.000 fps
Color space : YUV
Chroma subsampling : 4:2:0
Bit depth : 8 bits
Scan type : Progressive
Bits/(Pixel*Frame) : 0.115
Stream size : 231 MiB (79%)
Writing library : x264 core 146 r2538 121396c
Encoding settings : cabac=1 / ref=8 / deblock=1:-1:-1 / analyse=0x3:0x133 / me=umh / subme=10 / psy=1 / psy_rd=1.00:0.00 / mixed_ref=1 / me_range=24 / chroma_me=1 / trellis=2 / 8x8dct=1 / cqm=0 / deadzone=21,11 / fast_pskip=1 / chroma_qp_offset=-2 / threads=3 / lookahead_threads=1 / sliced_threads=0 / nr=0 / decimate=1 / interlaced=0 / bluray_compat=0 / constrained_intra=0 / bframes=8 / b_pyramid=2 / b_adapt=2 / b_bias=0 / direct=3 / weightb=1 / open_gop=0 / weightp=2 / keyint=250 / keyint_min=126 / scenecut=40 / intra_refresh=0 / rc_lookahead=40 / rc=2pass / mbtree=1 / bitrate=500 / ratetol=1.0 / qcomp=0.60 / qpmin=0 / qpmax=69 / qpstep=4 / cplxblur=20.0 / qblur=0.5 / ip_ratio=1.40 / aq=1:1.00
Menus : 3
Audio
ID : 2
Format : AAC
Format/Info : Advanced Audio Codec
Format profile : LC
Codec ID : 40
Duration : 1h 4mn
Bit rate mode : Variable
Bit rate : 128 Kbps
Channel(s) : 2 channels
Channel positions : Front: L R
Sampling rate : 48.0 KHz
Frame rate : 46.875 fps (1024 spf)
Compression mode : Lossy
Stream size : 59.1 MiB (20%)
Default : Yes
Alternate group : 1
Menus : 3

Внимание! Раздача ведётся путём добавления новых серий

Раздача ведётся путём добавления новых серий, при каждом добавлении создаётся новый торрент. Чтобы начать докачку новой серии, пользователям необходимо сделать следующее:
- Остановить скачивание.
- Удалить старый торрент у себя из клиента (старые серии удалять не надо).
- Скачать новый торрент и запустить его у себя в клиенте вместо старого, при этом указать клиенту путь в старую папку куда и должно происходить скачивание новых серий.
Ваш клиент при этом должен произвести хеширование (проверку) старой папки (если не производит сам - помогите ему сделать это), и будет докачивать только те серии которых у вас ещё нет. Старые серии при этом не удаляются, а продолжают раздаваться!
Релиз от:
[Profile] [PM]

GORGIK ®

Gender: Male

Longevity: 5 years 6 months

Posts: 1535

Location: СССР

Post 19-Apr-2024 13:35 (after 1 day 4 hours)

[Quote]

Весь сезон
[Profile] [PM]
Display posts:    
Reply to topic

Current time is: 31-May 01:57

All times are UTC + 3



You cannot post new topics in this forum
You cannot reply to topics in this forum
You cannot edit your posts in this forum
You cannot delete your posts in this forum
You cannot vote in polls in this forum
You cannot attach files in this forum
You cannot download files in this forum