Беспринципные [4 сезон: 1-8 серии из 8] (2024) WEB-DLRip от Files-x

Reply to topic
 
Author Message

bond74 ®

Gender: Male

Longevity: 5 years 6 months

Posts: 2404

Post 19-Apr-2024 07:12

[Quote]

Беспринципные Год выпуска: 2024
Выпущено: Комедия, экранизация
Режиссер: Роман Прыгунов
В ролях: Павел Деревянко, Ингеборга Дапкунайте, Максим Виторган, Оксана Акиньшина, Николай Фоменко, Аглая Тарасова, Павел Табаков, Юрий Колокольников, Надежда Михалкова, Кристина Бабушкина, Мария Шалаева, Дмитрий Муляр, Александр Семёнов (III), Юрий Батурин
О фильме: Добро пожаловать на Патриаршие. Смешные и волнующие подробности личной жизни богатых москвичей, которые, как и все, попадают в неловкие ситуации. Правда, ситуации у них не самые обычные... Жена чувствует себя виноватой, познакомившись с любовницей мужа. Муж прикрывается выдуманной дочерью друга. А друг толкает помощника на измену, потому что так хочет жена. И это только начало. Одним словом, неприличные истории о приличных, казалось бы, людях.
Качество: WEB-DLRip
Видео: XviD, ~ 1600 Кбит/с, 720x304, 25 кадр/с
Аудио: AC3, 6 ch, 448 Кбит/с |
Продолжительность: 4 x ~ 00:50:00
Перевод: Не требуется [Русский]
Субтитры: Русские

Скриншоты




MediaInfo

General
Complete name : D:\films\Шифр.s04.2024.WEB-DLRip.Files-x\02. Шифр.s04.2024.WEB-DLRip.Files-x.avi
Format : AVI
Format/Info : Audio Video Interleave
Format settings : BitmapInfoHeader / WaveFormatEx
File size : 629 MiB
Duration : 49 min 19 s
Overall bit rate : 1 783 kb/s
Frame rate : 25.000 FPS
Writing application : VirtualDubMod 1.5.10.3 | www.virtualdub-fr.org || (build 2550/release)
Writing library : VirtualDubMod build 2550/release
Video
ID : 0
Format : MPEG-4 Visual
Format profile : Advanced Simple@L5
Format settings : BVOP1 / Custom Matrix
Format settings, BVOP : 1
Format settings, QPel : No
Format settings, GMC : No warppoints
Format settings, Matrix : Custom
Codec ID : XVID
Codec ID/Hint : XviD
Duration : 49 min 19 s
Bit rate : 1 581 kb/s
Width : 720 pixels
Height : 400 pixels
Display aspect ratio : 16:9
Frame rate : 25.000 FPS
Color space : YUV
Chroma subsampling : 4:2:0
Bit depth : 8 bits
Scan type : Progressive
Compression mode : Lossy
Bits/(Pixel*Frame) : 0.220
Stream size : 558 MiB (89%)
Writing library : XviD 73
Audio
ID : 1
Format : AC-3
Format/Info : Audio Coding 3
Commercial name : Dolby Digital
Codec ID : 2000
Duration : 49 min 19 s
Bit rate mode : Constant
Bit rate : 192 kb/s
Channel(s) : 2 channels
Channel layout : L R
Sampling rate : 48.0 kHz
Frame rate : 31.250 FPS (1536 SPF)
Compression mode : Lossy
Stream size : 67.7 MiB (11%)
Alignment : Split across interleaves
Interleave, duration : 40 ms (1.00 video frame)
Interleave, preload duration : 500 ms
Service kind : Complete Main

Раздача ведётся путём добавления новых серий

Внимание! Раздача ведётся путём добавления новых серий; при каждом добавлении создаётся новый торрент.
Чтобы начать докачку новой серии, пользователям необходимо сделать следующее:
1. Остановить скачивание;
2. Удалить старый торрент у себя из клиента (старые серии удалять не надо);
3. Скачать новый торрент и запустить его у себя в клиенте вместо старого, при этом указать клиенту путь в старую папку куда и должно происходить скачивание новых серий. Ваш клиент при этом должен произвести хеширование (проверку) старой папки и будет докачивать только те серии, которых у вас ещё нет. Старые серии при этом не удаляются, а продолжают раздаваться! Eсли вы уже удалили старые серии, то предотвратить повторную закачку старых серий можно, отжав галочку в соответствующих местах при запуске нового торрента.
Релиз от:

Release was prepared by RG Files-x

[Profile] [PM]
Display posts:    
Reply to topic

Current time is: 31-May 01:54

All times are UTC + 3



You cannot post new topics in this forum
You cannot reply to topics in this forum
You cannot edit your posts in this forum
You cannot delete your posts in this forum
You cannot vote in polls in this forum
You cannot attach files in this forum
You cannot download files in this forum