Наш спецназ / Спецназ. ГБР [2 сезон: 1-36 серии из 36] (2023) HDTVRip от Files-x

Reply to topic
 
Author Message

Nicodem ®

Gender: Male

Longevity: 5 years 8 months

Posts: 1444

Post 24-Sep-2023 12:56

[Quote]

Наш спецназ / Спецназ ГБР
Год выпуска: 2023
Жанр: Детектив, боевик
Выпущено: Россия, "Триикс Медиа"
Режиссер: Виктор Шкуратов
В ролях: Сергей Горобченко, Людмила Волкова (III), Никита Чеканов, Матвей Жизневский, Никита Василевский (II), Андрей Папанин, Кристина Иёшкина, Валерий Рутковский, Екатерина Михайлова (V), Антон Колесов, Светлана Терентьева, Евгений Катаев, Газим Салихов, Александр Власенко (II), Анна Королева (II), Родион Рудаков, Антон Успенский, Сергей Яковлев (V), Павел Харизанов, Илья Мирошников, Екатерина Зингер, Александр Дубравин, Дмитрий Лебедев, Иван Матвеенко
О фильме: Группа немедленного реагирования "Трефы" петербургского СОБРа на особом счету в управлении Росгвардии. В команду входят самые лучшие бойцы, способные справиться с любой поставленной задачей. Пионер получает серьезное ранение и принимает решение оставить оперативную работу. Теперь он будет тренировать молодых бойцов спецназа в учебном центре. Да и личная жизнь начинает налаживаться. У бойцов группы "Трефы" знакомство с новым командиром Фоминым вызывает смешанные чувства. С одной стороны, отличный боец и руководитель. Первое же командное выступление перед руководством на полигоне – имитация освобождения заложников – показало рекордный даже для "Трефов" результат. С другой стороны, Фомин довольно сложный человек. Во втором сезоне новому командиру и четверке бойцов предстоит притереться друг к другу и стать единым слаженным механизмом. И чаще всего эта притирка будет происходить в максимально жёстких боевых условиях.

Качество: HDTVRip
Видео: XviD, ~ 1614 Кбит/с, 720x400, 25 кадр/с
Аудио: AC3, 2 ch, 192 Кбит/с
Продолжительность: 36 x ~ 00:41:20
Перевод: Не требуется
Cубтитры: нет

Скриншоты



MediaInfo

General
Complete name : C:33.Наш спецназ (Спецназ. ГБР).s02.E01.(2023).HDTVRip.by.Nicodem.Files-x.avi
Format : AVI
Format/Info : Audio Video Interleave
File size : 540 MiB
Duration : 41mn 36s
Overall bit rate : 1 815 Kbps
Writing application : VirtualDubMod 1.5.10.3 | www.virtualdub-fr.org || (build 2550/release)
Writing library : VirtualDubMod build 2550/release
Video
ID : 0
Format : MPEG-4 Visual
Format profile : Advanced Simple@L5
Format settings, BVOP : 1
Format settings, QPel : No
Format settings, GMC : No warppoints
Format settings, Matrix : Custom
Codec ID : XVID
Codec ID/Hint : XviD
Duration : 41mn 36s
Bit rate : 1 614 Kbps
Width : 720 pixels
Height : 400 pixels
Display aspect ratio : 16:9
Frame rate : 25.000 fps
Color space : YUV
Chroma subsampling : 4:2:0
Bit depth : 8 bits
Scan type : Progressive
Compression mode : Lossy
Bits/(Pixel*Frame) : 0.224
Stream size : 480 MiB (89%)
Writing library : XviD 73
Audio
ID : 1
Format : AC-3
Format/Info : Audio Coding 3
Mode extension : CM (complete main)
Codec ID : 2000
Duration : 41mn 36s
Bit rate mode : Constant
Bit rate : 192 Kbps
Channel(s) : 2 channels
Channel positions : Front: L R
Sampling rate : 48.0 KHz
Bit depth : 16 bits
Compression mode : Lossy
Stream size : 57.1 MiB (11%)
Alignment : Split accross interleaves
Interleave, duration : 40 ms (1.00 video frame)
Interleave, preload duration : 500 ms

Название серий

(33) 1 серия "Тайпан"
(34) 2 серия "Прямая наводка"
(35) 3 серия "Формула Фаредея"
(36) 4 серия "Надёжная страховка"
(37) 5 серия "Охотник за брюнетками"
(38) 6 серия "Дело чести"
(39) 7 серия "Зверь"
(40) 8 серия "Генегат"
(41) 9 серия "Правело бумеранга"
(42) 10 серия "Акела промахнулся"
(43) 11 серия "Семья"
(44) 12 серия "Последний угон"
(45) 13 серия "Нападение"
(46) 14 серия "Месть"
(47) 15 серия "Большая афера"
(48) 16 серия "Жатва"
(49) 17 серия "Призрак"
(50) 18 серия "Лев против змеи"
(51) 19 серия "Под подозрением"
(52) 20 серия "Братство"
(53) 21 серия "Враг"
(54) 22 серия "Осада"
(55) 23 серия "Кровная месть"
(56) 24 серия "Люди в черном"
(57) 25 серия "Золото"
(58) 26 серия "Заговор"
(59) 27 серия "Личные счеты"
(60) 28 серия "План побега"
(61) 29 серия "Врачебная тайна"
(62) 30 серия "Атака"
(63) 31 серия "Напролом"
(64) 32 серия "Гонка"
(65) 33 серия "Дуэль"
(66) 34 серия "Старая рана"
(67) 35 серия "Закрыть гештальт"
(68) 36 серия "Цейтнот"

Раздача ведётся путём добавления новых серий

Внимание! Раздача ведётся путём добавления новых серий; при каждом добавлении создаётся новый торрент.
Чтобы начать докачку новой серии, пользователям необходимо сделать следующее:
1. Остановить скачивание;
2. Удалить старый торрент у себя из клиента (старые серии удалять не надо);
3. Скачать новый торрент и запустить его у себя в клиенте вместо старого, при этом указать клиенту путь в старую папку куда и должно происходить скачивание новых серий. Ваш клиент при этом должен произвести хеширование (проверку) старой папки и будет докачивать только те серии, которых у вас ещё нет. Старые серии при этом не удаляются, а продолжают раздаваться! Eсли вы уже удалили старые серии, то предотвратить повторную закачку старых серий можно, отжав галочку в соответствующих местах при запуске нового торрента.
Релиз от:

Release was prepared by RG Files-x

Related releases "Наш спецназ" (10):
Added Topic title Size
6 Jun 24  Наш спецназ / Спецназ. ГБР [3 сезон: 1-36 серии из 36] (2024) WEB-DLRip от Files-х 19.14 GB
6 Jun 24  Наш спецназ / Спецназ. ГБР [3 сезон: 1-36 серии из 36] (2024) WEB-DLRip-AVC от Files-x 19.28 GB
28 May 24  Наш спецназ / Спецназ. ГБР [3 сезон: 1-36 серии из 36] (2023) SATRip от Files-x 18.95 GB
11 Nov 23  Наш спецназ / Спецназ. ГБР [2 сезон: 1-36 серии из 36] (2023) WEB-DLRip-AVC от Files-x 19.36 GB
11 Nov 23  Наш спецназ / Спецназ. ГБР [2 сезон: 1-36 серии из 36] (2023) WEB-DLRip-AVC от Files-x 19.26 GB
8 Nov 23  Наш спецназ (Спецназ. ГБР) [2 сезон: 1-36 серии из 36] (2023) WEBRip от Generalfilm | КПК 5.63 GB
4 Mar 23  Наш спецназ / Спецназ. ГБР [1-32 серии из 32] (2022) WEB-DLRip-AVC от Generalfilm | КПК 2 5.96 GB
6 Feb 23  Наш спецназ / Спецназ. ГБР [1-32 серии из 32] (2022) WEB-DLRip-AVC от Files-x 16.88 GB
6 Feb 23  Наш спецназ / Спецназ. ГБР [1-32 серии из 32] (2022) WEB-DLRip от Files-x 16.89 GB
30 Oct 22  Наш спецназ / Спецназ. ГБР [1 сезон: 1-32 серии из 32] (2022) SATRip от Files-x 1 16.58 GB
Find all related releases Наш спецназ
[Profile] [PM]

Nicodem ®

Gender: Male

Longevity: 5 years 8 months

Posts: 1444

Post 05-Oct-2023 23:51 (after 11 days)

[Quote]

Серии в SatRip с 1-6 заменены на HDTVRip
[Profile] [PM]
Display posts:    
Reply to topic

Current time is: 18-Jul 11:44

All times are UTC + 3



You cannot post new topics in this forum
You cannot reply to topics in this forum
You cannot edit your posts in this forum
You cannot delete your posts in this forum
You cannot vote in polls in this forum
You cannot attach files in this forum
You cannot download files in this forum