Условный мент / Охта [5 сезон: 1-32 серии из 50] (2023-2024) WEB-DL 720p от Files-x

Reply to topic
 
Author Message

patriot67 ®

Gender: Male

Longevity: 4 years 5 months

Posts: 235

Post 16-Dec-2023 22:08

[Quote]

Условный мент / Охта Год выпуска: 2023-2024
Жанр: Детектив, приключения
Выпущено: Россия, Кинокомпания "Триикс Медиа"
Режиссер: Андрей Коршунов, Кристина Кутчер, Анатолий Семёнов (V)
В ролях: Денис Рожков, Анастасия Тюнина, Алексей Нилов, Сергей Кошонин, Алексей Фокин, Егор Бакулин, Кирилл Балобан, Ольга Богданова, Ольга Кирсанова-Миропольская, Любовь Макеева, Инесса Перелыгина-Владимирова, Алексей Байдаков, Евгений Карпов, Денис Зайцев, Никита Рогов, Виталий Бисеров, Данила Воропаев, Дарья Паутова, Алексей Алфеев, Антон Пулит, Ариэль Ласкер, Данила Иванов, Евгений Антонов, Олег Жилин, Антон Падерин, Никита Брусов, Андрей Родимов, Мария Капустинская, Алексей Романович, Андрей Бодренков, Михаил Скачков, Юлия Филиппова (II), Олег Попов (II), Дмитрий Зайцев (V), Филипп Чевычелов, Юрий Сташин, Илья Ивахнов, Юлия Скороход, Евгений Михайленко, Валентин Корнезо, Тимур Гилязов, Светлана Бакулина, Евгений Тымченко, Азат Алимбаев, Виолетта Балакирева, Александр Иванов (XVII), Игорь Бедных, Мария Грицюк, Мария Петрик, Егор Щедров, Александр Власенко (II), Софья Юрко, Георгий Медведев, Дмитрий Мазин, Елена Азарко, Олег Флеер, Виталий Татаринович, Сергей Евсеев, Вячеслав Воронцов, Роман Мамонтов, Антон Емельянов-Молчанов, Анастасия Даниелянц, Александра Сыдорук, Оксана Скакун, Роман Жилкин, Виктор Хозяинов, Николай Колосов, Роман Смирнов, Арсений Бедных, Григорий Бедных
О фильме: Дмитрий Рыжов, чей отец погиб при исполнении, решает продолжить его дело по борьбе с преступностью. Честный и принципиальный сотрудник угро многим пришёлся не по душе. За превышение полномочий Рыжова отправляют на скамью подсудимых. Полиция лишается отличного сотрудника, который отправляется отбывать двухлетний срок. И хотя на свободу Дмитрий выходит по УДО намного раньше, оперативником ему больше не быть. Путь в полицию Рыжову теперь заказан, да он и сам не желает связываться с уголовным розыском, а идёт работать в коммунальный сектор. Но и здесь покоя бывшему оперативнику ждать не приходится. Хозяин жилкомсервиса, в который устроился Рыжов, крутит «левые» дела в паре с капитаном Тельцовым, прикрывающим махинации. Участковый этого участка Арина Гордеева знает о происходящем, и мириться с мошенническими схемами и коррупцией в рядах полиции не собирается. Знакомство с бывшим оперативником Рыжовым приводит к появлению тандема, который встаёт на защиту законности. А через какое-то время Дмитрий начинает испытывать к новой знакомой романтические чувства.
Качество: WEB-DL 720p
Видео: MPEG-4 AVC, ~ 2569 Кбит/с, 1280x720, 25 кадр/с
Аудио: AC3, 2 ch, 192 Кбит/с
Продолжительность: 32 х ~ 00:42:44
Перевод: Не требуется
Cубтитры: Нет

Скриншоты


MediaInfo

Общее
Уникальный идентификатор : 190115660802944056670067559484991046743 (0x8F06F1C47176E5E68362F0D2AAD18457)
Полное имя : D:\Условный мент.S05.2023.WEB-DL 720p.Files-x\01 Условный мент.S05.2023.WEB-DL 720p.Files-x.mkv
Формат : Matroska
Версия формата : Version 4
Размер файла : 842 Мбайт
Продолжительность : 42 м. 44 с.
Общий поток : 2 754 Кбит/сек
Частота кадров : 25,000 кадров/сек
Дата кодирования : 2023-12-16 18:40:22 UTC
Программа кодирования : mkvmerge v7.8.0 ('River Man') 32bit built on Apr 3 2015 12:11:22
Библиотека кодирования : libebml v1.3.1 + libmatroska v1.4.2
Видео
Идентификатор : 1
Формат : AVC
Формат/Информация : Advanced Video Codec
Профиль формата : High@L4
Настройки формата : CABAC / 4 Ref Frames
Параметр CABAC формата : Да
Параметр RefFrames формата : 4 кадра
Идентификатор кодека : V_MPEG4/ISO/AVC
Продолжительность : 42 м. 44 с.
Битрейт : 2 569 Кбит/сек
Ширина : 1 280 пикселей
Высота : 720 пикселей
Соотношение сторон : 16:9
Режим частоты кадров : Постоянный
Частота кадров : 25,000 кадров/сек
Цветовое пространство : YUV
Субдискретизация насыщенности : 4:2:0
Битовая глубина : 8 бит
Тип развёртки : Прогрессивная
Бит/(Пиксели*Кадры) : 0.112
Размер потока : 782 Мбайт (93%)
Библиотека кодирования : x264 core 152 r2854 e9a5903
Настройки программы : cabac=1 / ref=3 / deblock=1:0:0 / analyse=0x3:0x113 / me=hex / subme=7 / psy=1 / psy_rd=1.00:0.00 / mixed_ref=1 / me_range=16 / chroma_me=1 / trellis=1 / 8x8dct=1 / cqm=0 / deadzone=21,11 / fast_pskip=1 / chroma_qp_offset=-2 / threads=22 / lookahead_threads=3 / sliced_threads=0 / nr=0 / decimate=1 / interlaced=0 / bluray_compat=0 / constrained_intra=0 / bframes=6 / b_pyramid=2 / b_adapt=1 / b_bias=0 / direct=1 / weightb=1 / open_gop=0 / weightp=2 / keyint=50 / keyint_min=26 / scenecut=0 / intra_refresh=0 / rc_lookahead=40 / rc=2pass / mbtree=1 / bitrate=2569 / ratetol=1.0 / qcomp=0.60 / qpmin=0 / qpmax=69 / qpstep=4 / cplxblur=20.0 / qblur=0.5 / vbv_maxrate=3854 / vbv_bufsize=10279 / nal_hrd=none / filler=0 / ip_ratio=1.40 / aq=1:1.00
Default : Да
Forced : Нет
Аудио
Идентификатор : 2
Формат : AC-3
Формат/Информация : Audio Coding 3
Коммерческое название : Dolby Digital
Идентификатор кодека : A_AC3
Продолжительность : 42 м. 44 с.
Вид битрейта : Постоянный
Битрейт : 192 Кбит/сек
Каналы : 2 канала
Channel layout : L R
Частота : 48,0 КГц
Частота кадров : 31,250 кадров/сек (1536 SPF)
Метод сжатия : С потерями
Размер потока : 58,7 Мбайт (7%)
Service kind : Complete Main
Default : Да
Forced : Нет

Внимание! Раздача ведётся путём добавления новых серий

Раздача ведётся путём добавления новых серий, при каждом добавлении создаётся новый торрент. Чтобы начать докачку новой серии, пользователям необходимо сделать следующее:
- Остановить скачивание.
- Удалить старый торрент у себя из клиента (старые серии удалять не надо).
- Скачать новый торрент и запустить его у себя в клиенте вместо старого, при этом указать клиенту путь в старую папку куда и должно происходить скачивание новых серий.
Ваш клиент при этом должен произвести хеширование (проверку) старой папки (если не производит сам - помогите ему сделать это), и будет докачивать только те серии которых у вас ещё нет. Старые серии при этом не удаляются, а продолжают раздаваться!
Релиз от:

Release was prepared by RG Files-x

[Profile] [PM]
Display posts:    
Reply to topic

Current time is: 20-Apr 15:22

All times are UTC + 3



You cannot post new topics in this forum
You cannot reply to topics in this forum
You cannot edit your posts in this forum
You cannot delete your posts in this forum
You cannot vote in polls in this forum
You cannot attach files in this forum
You cannot download files in this forum