Многодетство [1-12 серии из 12] (2024) WEBRip от Files-x

Reply to topic
 
Author Message

bond74 ®

Gender: Male

Longevity: 5 years 5 months

Posts: 2364

Post 29-Feb-2024 19:05

[Quote]

Многодетство
Год выпуска: 2024
Жанр: Комедия, семейное кино
Выпущено: Россия, Институт развития интернета, START
Режиссер: Роман Самгин, Екатерина Аликина (II)
В ролях: Павел Савинков, Полина Лазарева, Иван Бычков (III), Никита Родионов, Вера Чернявская, Нелли Уварова, Капитолина Соболь, Матвей Шеремет, Эдгар Гизатуллин, Юрий Скулябин, Владимир Гостюхин, Александр Загоскин (II), Григорий Багров, Александра Виноградова, Антон Батырев, София Петрова, Артемий Боев, Артём Окунев, Надежда Бабкина
О фильме: Семья Герасимовых большая и дружная. Павел — архитектор, отец пятерых детей, мечтает о шестом. Единственное, что мешает счастью, это теснота московской квартиры, в которой живут герои. Вдохновленный этой болью Павел разрабатывает жилой комплекс для многодетных семей. Идея ЖК «Ковчег» нравится девелоперу Льву Борисовичу, но только как способ привлечь внимание к проекту. Это ставит Павла перед сложной дилеммой: увеличить свою жилплощадь, обманув таких же как он бедолаг, либо пойти на конфликт с очень серьезным человеком. Семья понимает, что не способна на сделки с совестью, продает квартиру и уезжает из города. Они селятся в старом доме, где жили предки Павла, и решают своими руками построить свой «Ковчег». Этот выбор превращает жизнь семьи в настоящее приключение, открывает им силу большой дружной семьи и каждого ее члена в отдельности.

Качество: WEBRip
Видео: XviD, ~ 1600 Кбит/с, 720x400, 25 кадр/с
Аудио: AC3, 2 ch, 192 Кбит/с
Продолжительность: 12 х ~ 00:25:46
Перевод: Не требуется
Cубтитры: Нет

Скриншоты



MediaInfo

Общее
Полное имя : D:\films\Многодетство.2024.WEB-DLRip.Files-x\01 Многодетство.2024.WEB-DLRip.Files-x.avi
Формат : AVI
Формат/Информация : Audio Video Interleave
Настройки формата : BitmapInfoHeader / WaveFormatEx
Размер файла : 316 Мбайт
Продолжительность : 25 м. 46 с.
Общий поток : 1 715 Кбит/сек
Частота кадров : 25,000 кадров/сек
Программа кодирования : VirtualDubMod 1.5.10.3 | www.virtualdub-fr.org || (build 2550/release)
Библиотека кодирования : VirtualDubMod build 2550/release
Видео
Идентификатор : 0
Формат : MPEG-4 Visual
Профиль формата : Advanced Simple@L5
Настройки формата : BVOP1 / Custom Matrix
Параметр BVOP формата : 1
Параметр QPel формата : Нет
Параметр GMC формата : Без точки перехода
Параметр матрицы формата : Выборочная
Идентификатор кодека : XVID
Идентификатор кодека/Подсказка : XviD
Продолжительность : 25 м. 46 с.
Битрейт : 1 514 Кбит/сек
Ширина : 720 пикселей
Высота : 400 пикселей
Соотношение сторон : 16:9
Частота кадров : 25,000 кадров/сек
Цветовое пространство : YUV
Субдискретизация насыщенности : 4:2:0
Битовая глубина : 8 бит
Тип развёртки : Прогрессивная
Метод сжатия : С потерями
Бит/(Пиксели*Кадры) : 0.210
Размер потока : 279 Мбайт (88%)
Библиотека кодирования : XviD 73
Аудио
Идентификатор : 1
Формат : AC-3
Формат/Информация : Audio Coding 3
Коммерческое название : Dolby Digital
Идентификатор кодека : 2000
Продолжительность : 25 м. 46 с.
Вид битрейта : Постоянный
Битрейт : 192 Кбит/сек
Каналы : 2 канала
Channel layout : L R
Частота : 48,0 КГц
Частота кадров : 31,250 кадров/сек (1536 SPF)
Метод сжатия : С потерями
Размер потока : 35,4 Мбайт (11%)
Выравнивание : Разделение по промежуткам
Продолжительность промежутка : 40 мс. (1,00 видеокадр)
Время предзагрузки промежутка : 500 мс.
Service kind : Complete Main

Раздача ведётся путём добавления новых серий

Внимание! Раздача ведётся путём добавления новых серий; при каждом добавлении создаётся новый торрент.
Чтобы начать докачку новой серии, пользователям необходимо сделать следующее:
1. Остановить скачивание;
2. Удалить старый торрент у себя из клиента (старые серии удалять не надо);
3. Скачать новый торрент и запустить его у себя в клиенте вместо старого, при этом указать клиенту путь в старую папку куда и должно происходить скачивание новых серий. Ваш клиент при этом должен произвести хеширование (проверку) старой папки и будет докачивать только те серии, которых у вас ещё нет. Старые серии при этом не удаляются, а продолжают раздаваться! Eсли вы уже удалили старые серии, то предотвратить повторную закачку старых серий можно, отжав галочку в соответствующих местах при запуске нового торрента.
Релиз от:

Release was prepared by RG Files-x

[Profile] [PM]
Display posts:    
Reply to topic

Current time is: 20-Apr 16:45

All times are UTC + 3



You cannot post new topics in this forum
You cannot reply to topics in this forum
You cannot edit your posts in this forum
You cannot delete your posts in this forum
You cannot vote in polls in this forum
You cannot attach files in this forum
You cannot download files in this forum