Многодетство [1-12 серии из 12] (2024) WEBRip 720p от Files-x

Reply to topic
 
Author Message

bond74 ®

Gender: Male

Longevity: 5 years 5 months

Posts: 2364

Post 29-Feb-2024 19:33

[Quote]

Многодетство
Год выпуска: 2024
Жанр: Комедия, семейное кино
Выпущено: Россия, Институт развития интернета, START
Режиссер: Роман Самгин, Екатерина Аликина (II)
В ролях: Павел Савинков, Полина Лазарева, Иван Бычков (III), Никита Родионов, Вера Чернявская, Нелли Уварова, Капитолина Соболь, Матвей Шеремет, Эдгар Гизатуллин, Юрий Скулябин, Владимир Гостюхин, Александр Загоскин (II), Григорий Багров, Александра Виноградова, Антон Батырев, София Петрова, Артемий Боев, Артём Окунев, Надежда Бабкина
О фильме: Семья Герасимовых большая и дружная. Павел — архитектор, отец пятерых детей, мечтает о шестом. Единственное, что мешает счастью, это теснота московской квартиры, в которой живут герои. Вдохновленный этой болью Павел разрабатывает жилой комплекс для многодетных семей. Идея ЖК «Ковчег» нравится девелоперу Льву Борисовичу, но только как способ привлечь внимание к проекту. Это ставит Павла перед сложной дилеммой: увеличить свою жилплощадь, обманув таких же как он бедолаг, либо пойти на конфликт с очень серьезным человеком. Семья понимает, что не способна на сделки с совестью, продает квартиру и уезжает из города. Они селятся в старом доме, где жили предки Павла, и решают своими руками построить свой «Ковчег». Этот выбор превращает жизнь семьи в настоящее приключение, открывает им силу большой дружной семьи и каждого ее члена в отдельности.

Качество: WEBRip 720p
Видео: MPEG-4 AVC, ~ 2300 Кбит/с, 1280x720, 25 кадр/с
Аудио: AC3, 2 ch, 192 Кбит/с
Продолжительность: 6 х ~ 00:25:46
Перевод: Не требуется
Cубтитры: Русские

Скриншоты




MediaInfo

Общее
Уникальный идентификатор : 241213010103696760170709224310054477002 (0xB577EF9806178A279A9069923E465CCA)
Полное имя : D:\films\Многодетство.2024.WEB-DL 720p.Files-x\04 Многодетство.2024.WEB-DL 720p.Files-x.mkv
Формат : Matroska
Версия формата : Version 4
Размер файла : 377 Мбайт
Продолжительность : 24 м. 1 с.
Общий поток : 2 194 Кбит/сек
Частота кадров : 25,000 кадров/сек
Дата кодирования : 2024-02-29 14:08:10 UTC
Программа кодирования : mkvmerge v7.8.0 ('River Man') 32bit built on Apr 3 2015 12:11:22
Библиотека кодирования : libebml v1.3.1 + libmatroska v1.4.2
Видео
Идентификатор : 1
Формат : AVC
Формат/Информация : Advanced Video Codec
Профиль формата : Main@L3.1
Настройки формата : CABAC / 4 Ref Frames
Параметр CABAC формата : Да
Параметр RefFrames формата : 4 кадра
Идентификатор кодека : V_MPEG4/ISO/AVC
Продолжительность : 24 м. 1 с.
Битрейт : 2 000 Кбит/сек
Номинальный битрейт : 2 300 Кбит/сек
Ширина : 1 280 пикселей
Высота : 720 пикселей
Соотношение сторон : 16:9
Режим частоты кадров : Постоянный
Частота кадров : 25,000 кадров/сек
Цветовое пространство : YUV
Субдискретизация насыщенности : 4:2:0
Битовая глубина : 8 бит
Тип развёртки : Прогрессивная
Бит/(Пиксели*Кадры) : 0.087
Размер потока : 344 Мбайт (91%)
Библиотека кодирования : x264 core 164
Настройки программы : cabac=1 / ref=2 / deblock=1:0:0 / analyse=0x1:0x111 / me=hex / subme=6 / psy=1 / psy_rd=1.00:0.00 / mixed_ref=1 / me_range=16 / chroma_me=1 / trellis=1 / 8x8dct=0 / cqm=0 / deadzone=21,11 / fast_pskip=1 / chroma_qp_offset=-2 / threads=12 / lookahead_threads=2 / sliced_threads=0 / nr=0 / decimate=1 / interlaced=0 / bluray_compat=0 / constrained_intra=0 / bframes=3 / b_pyramid=2 / b_adapt=1 / b_bias=0 / direct=1 / weightb=1 / open_gop=0 / weightp=1 / keyint=250 / keyint_min=25 / scenecut=40 / intra_refresh=0 / rc_lookahead=30 / rc=cbr / mbtree=1 / bitrate=2300 / ratetol=1.0 / qcomp=0.60 / qpmin=0 / qpmax=69 / qpstep=4 / vbv_maxrate=2300 / vbv_bufsize=2990 / nal_hrd=none / filler=0 / ip_ratio=1.40 / aq=1:1.00
Default : Да
Forced : Нет
Аудио
Идентификатор : 2
Формат : AC-3
Формат/Информация : Audio Coding 3
Коммерческое название : Dolby Digital
Идентификатор кодека : A_AC3
Продолжительность : 24 м. 1 с.
Вид битрейта : Постоянный
Битрейт : 192 Кбит/сек
Каналы : 2 канала
Channel layout : L R
Частота : 48,0 КГц
Частота кадров : 31,250 кадров/сек (1536 SPF)
Метод сжатия : С потерями
Задержка видео : -80 мс.
Размер потока : 33,0 Мбайт (9%)
Service kind : Complete Main
Default : Да
Forced : Нет
Текст
Идентификатор : 3
Формат : UTF-8
Идентификатор кодека : S_TEXT/UTF8
Идентификатор кодека/Информация : UTF-8 Plain Text
Продолжительность : 21 м. 14 с.
Битрейт : 117 бит/сек
Частота кадров : 0,239 кадр/сек
Count of elements : 304
Размер потока : 18,3 Кбайт (0%)
Default : Да
Forced : Да

Раздача ведётся путём добавления новых серий

Внимание! Раздача ведётся путём добавления новых серий; при каждом добавлении создаётся новый торрент.
Чтобы начать докачку новой серии, пользователям необходимо сделать следующее:
1. Остановить скачивание;
2. Удалить старый торрент у себя из клиента (старые серии удалять не надо);
3. Скачать новый торрент и запустить его у себя в клиенте вместо старого, при этом указать клиенту путь в старую папку куда и должно происходить скачивание новых серий. Ваш клиент при этом должен произвести хеширование (проверку) старой папки и будет докачивать только те серии, которых у вас ещё нет. Старые серии при этом не удаляются, а продолжают раздаваться! Eсли вы уже удалили старые серии, то предотвратить повторную закачку старых серий можно, отжав галочку в соответствующих местах при запуске нового торрента.
Релиз от:

Release was prepared by RG Files-x

[Profile] [PM]
Display posts:    
Reply to topic

Current time is: 20-Apr 16:44

All times are UTC + 3



You cannot post new topics in this forum
You cannot reply to topics in this forum
You cannot edit your posts in this forum
You cannot delete your posts in this forum
You cannot vote in polls in this forum
You cannot attach files in this forum
You cannot download files in this forum