Загляни ему в голову [1-16 серии из 16] (2023) WEBRip от Files-х

Reply to topic
 
Author Message

bond74 ®

Gender: Male

Longevity: 5 years 6 months

Posts: 2403

Post 07-Apr-2024 18:10

[Quote]

Загляни ему в голову Год выпуска: 2023
Жанр: Детектив, драма
Выпущено: Россия, Кинокомпания "Кинокомпания Альянс", ВГТРК
Режиссер: Валерия Ивановская
В ролях: Кирилл Жандаров, Мария Валешная, Дарья Урсуляк, Павел Трубинер, Валентин Смирнитский, Владислав Ветров, Сергей Юшкевич, Павел Попов, Дмитрий Власкин, Алексей Демидов, Евгения Розанова, Михаил Пореченков, Любовь Толкалина, Ян Цапник
О фильме: Валерий Лунин – в прошлом клинический психиатр, а ныне консультант в оперативно-следственной группе по резонансным преступлениям. Раскрывать преступления Лунину помогает уникальный метод, основанный на особенностях его психики. Он может вживаться в роль преступника, буквально влезать ему в голову, и восстанавливать его мотивы. Валерий знает, что его способности – психическая болезнь, которую ему приходится скрывать. Его начальник, полковник Покрасов и журналистка Драпова стремятся разоблачить героя, но Лунина спасает заступничество высокого начальства – генерала Мордвинова. Непростые отношения у Анатолия складываются и с коллегой – штатным психологом-криминалистом Ариной Солодовниковой. Однако с каждым новым делом ее мнение о Лунине меняется: Арина убеждается в профессионализме и необычном таланте Анатолия.

Качество: WEBRip
Видео: XviD, ~ 1600 Кбит/с, 720x400, 25 кадр/с
Аудио: AC3, 2 ch, 192 Кбит/с
Продолжительность: 2 х ~ 00:52:04
Перевод: Не требуется
Cубтитры: Нет

Скриншоты



MediaInfo

General
Complete name : C:\films\Загляни ему в голову. 2024 .WEB-DLRip.Files-x\02. Загляни ему в голову. 2024 .WEB-DLRip.Files-x.avi
Format : AVI
Format/Info : Audio Video Interleave
Format settings : BitmapInfoHeader / WaveFormatEx
File size : 674 MiB
Duration : 52 min 41 s
Overall bit rate : 1 789 kb/s
Frame rate : 25.000 FPS
Writing application : VirtualDubMod 1.5.10.3 | www.virtualdub-fr.org || (build 2550/release)
Writing library : VirtualDubMod build 2550/release
Video
ID : 0
Format : MPEG-4 Visual
Format profile : Advanced Simple@L5
Format settings : BVOP1 / Custom Matrix
Format settings, BVOP : 1
Format settings, QPel : No
Format settings, GMC : No warppoints
Format settings, Matrix : Custom
Codec ID : XVID
Codec ID/Hint : XviD
Duration : 52 min 41 s
Bit rate : 1 588 kb/s
Width : 720 pixels
Height : 400 pixels
Display aspect ratio : 16:9
Frame rate : 25.000 FPS
Color space : YUV
Chroma subsampling : 4:2:0
Bit depth : 8 bits
Scan type : Progressive
Compression mode : Lossy
Bits/(Pixel*Frame) : 0.221
Stream size : 598 MiB (89%)
Writing library : XviD 73
Audio
ID : 1
Format : AC-3
Format/Info : Audio Coding 3
Commercial name : Dolby Digital
Codec ID : 2000
Duration : 52 min 41 s
Bit rate mode : Constant
Bit rate : 192 kb/s
Channel(s) : 2 channels
Channel layout : L R
Sampling rate : 48.0 kHz
Frame rate : 31.250 FPS (1536 SPF)
Compression mode : Lossy
Stream size : 72.4 MiB (11%)
Alignment : Split across interleaves
Interleave, duration : 40 ms (1.00 video frame)
Interleave, preload duration : 500 ms
Service kind : Complete Main

Раздача ведётся путём добавления новых серий

Внимание! Раздача ведётся путём добавления новых серий; при каждом добавлении создаётся новый торрент.
Чтобы начать докачку новой серии, пользователям необходимо сделать следующее:
1. Остановить скачивание;
2. Удалить старый торрент у себя из клиента (старые серии удалять не надо);
3. Скачать новый торрент и запустить его у себя в клиенте вместо старого, при этом указать клиенту путь в старую папку куда и должно происходить скачивание новых серий. Ваш клиент при этом должен произвести хеширование (проверку) старой папки и будет докачивать только те серии, которых у вас ещё нет. Старые серии при этом не удаляются, а продолжают раздаваться! Eсли вы уже удалили старые серии, то предотвратить повторную закачку старых серий можно, отжав галочку в соответствующих местах при запуске нового торрента.
Релиз от:

Release was prepared by RG Files-x

[Profile] [PM]
Display posts:    
Reply to topic

Current time is: 31-May 00:16

All times are UTC + 3



You cannot post new topics in this forum
You cannot reply to topics in this forum
You cannot edit your posts in this forum
You cannot delete your posts in this forum
You cannot vote in polls in this forum
You cannot attach files in this forum
You cannot download files in this forum