Наш спецназ / Спецназ. ГБР [3 сезон: 1-29 серии из 36] (2024) WEB-DLRip от Files-х

Reply to topic
 
Author Message

patriot67 ®

Gender: Male

Longevity: 4 years 6 months

Posts: 302

Post 02-May-2024 19:25

[Quote]

Наш спецназ / Спецназ. ГБР Год выпуска: 2024
Жанр: Детектив, боевик
Выпущено: Россия, Кинокомпания "Триикс Медиа" по заказу Пятого канала
Режиссер: Виктор Шкуратов
В ролях: Сергей Горобченко, Никита Чеканов, Матвей Жизневский, Никита Василевский (II), Андрей Папанин, Светлана Терентьева, Роман Притула, Евгений Евдокимов, Светлана Шелупец, Екатерина Михайлова (V), Тимур Хайруллин, Александр Загребин, Дмитрий Сергеев, Николай Краснопёров, Антон Сычёв, Алиса Шитикова, Дмитрий Аршанский, Василий Данько, Александр Говорский, Дмитрий Лебедев, Антон Никушин, Сергей Кореньков, Пётр Артамонов
О фильме: В новом сезоне Фомину придется вытаскивать своего сына из неприятностей, куда тот постоянно будет попадать. Появится и любовная линия. Перед обаянием командира группы не смогут устоять следователь Наталья Зубкова и психиатр Виктория Ефремова. Личные сложности будут и у остальных бойцов СОБРа. Сергей Богатов, он же «Отец», столкнется с новым для себя родительским вызовом: его дочь Диана пойдет служить в ППС. А свободный «Ромео» снова отправится похищать девичьи сердца.

Качество: WEB-DLRip
Видео: XviD, ~ 1600 Кбит/с, 720x400, 25 кадр/с
Аудио: AC3, 2 ch, 192 Кбит/с
Продолжительность: 28 х ~ 00:42:10
Перевод: Не требуется
Cубтитры: Нет

Скриншоты




MediaInfo

General
Complete name : D:\films\Наш спецназ .S03.2024.WEB-DLRip.Files-x\02. Наш спецназ .S03.2024.WEB-DLRip.Files-x.avi
Format : AVI
Format/Info : Audio Video Interleave
Format settings : BitmapInfoHeader / WaveFormatEx
File size : 542 MiB
Duration : 42 min 14 s
Overall bit rate : 1 793 kb/s
Frame rate : 25.000 FPS
Writing application : VirtualDubMod 1.5.10.3 | www.virtualdub-fr.org || (build 2550/release)
Writing library : VirtualDubMod build 2550/release
Video
ID : 0
Format : MPEG-4 Visual
Format profile : Advanced Simple@L5
Format settings : BVOP1 / Custom Matrix
Format settings, BVOP : 1
Format settings, QPel : No
Format settings, GMC : No warppoints
Format settings, Matrix : Custom
Codec ID : XVID
Codec ID/Hint : XviD
Duration : 42 min 14 s
Bit rate : 1 592 kb/s
Width : 720 pixels
Height : 400 pixels
Display aspect ratio : 16:9
Frame rate : 25.000 FPS
Color space : YUV
Chroma subsampling : 4:2:0
Bit depth : 8 bits
Scan type : Progressive
Compression mode : Lossy
Bits/(Pixel*Frame) : 0.221
Stream size : 481 MiB (89%)
Writing library : XviD 73
Audio
ID : 1
Format : AC-3
Format/Info : Audio Coding 3
Commercial name : Dolby Digital
Codec ID : 2000
Duration : 42 min 14 s
Bit rate mode : Constant
Bit rate : 192 kb/s
Channel(s) : 2 channels
Channel layout : L R
Sampling rate : 48.0 kHz
Frame rate : 31.250 FPS (1536 SPF)
Compression mode : Lossy
Stream size : 58.0 MiB (11%)
Alignment : Split across interleaves
Interleave, duration : 40 ms (1.00 video frame)
Interleave, preload duration : 500 ms
Service kind : Complete Main

Внимание! Раздача ведётся путём добавления новых серий

Раздача ведётся путём добавления новых серий, при каждом добавлении создаётся новый торрент. Чтобы начать докачку новой серии, пользователям необходимо сделать следующее:
- Остановить скачивание.
- Удалить старый торрент у себя из клиента (старые серии удалять не надо).
- Скачать новый торрент и запустить его у себя в клиенте вместо старого, при этом указать клиенту путь в старую папку куда и должно происходить скачивание новых серий.
Ваш клиент при этом должен произвести хеширование (проверку) старой папки (если не производит сам - помогите ему сделать это), и будет докачивать только те серии которых у вас ещё нет. Старые серии при этом не удаляются, а продолжают раздаваться!
Релиз от:

Release was prepared by RG Files-x

Related releases "Наш спецназ" (10):
Added Topic title Size
30 May 24  Наш спецназ / Спецназ. ГБР [3 сезон: 1-29 серии из 36] (2024) WEB-DLRip-AVC от Files-x 15.53 GB
28 May 24  Наш спецназ / Спецназ. ГБР [3 сезон: 1-36 серии из 36] (2023) SATRip от Files-x 18.95 GB
11 Nov 23  Наш спецназ / Спецназ. ГБР [2 сезон: 1-36 серии из 36] (2023) WEB-DLRip-AVC от Files-x 19.36 GB
11 Nov 23  Наш спецназ / Спецназ. ГБР [2 сезон: 1-36 серии из 36] (2023) WEB-DLRip-AVC от Files-x 19.26 GB
8 Nov 23  Наш спецназ (Спецназ. ГБР) [2 сезон: 1-36 серии из 36] (2023) WEBRip от Generalfilm | КПК 5.63 GB
3 Nov 23  Наш спецназ / Спецназ. ГБР [2 сезон: 1-36 серии из 36] (2023) HDTVRip от Files-x 1 19.09 GB
4 Mar 23  Наш спецназ / Спецназ. ГБР [1-32 серии из 32] (2022) WEB-DLRip-AVC от Generalfilm | КПК 2 5.96 GB
6 Feb 23  Наш спецназ / Спецназ. ГБР [1-32 серии из 32] (2022) WEB-DLRip-AVC от Files-x 16.88 GB
6 Feb 23  Наш спецназ / Спецназ. ГБР [1-32 серии из 32] (2022) WEB-DLRip от Files-x 16.89 GB
30 Oct 22  Наш спецназ / Спецназ. ГБР [1 сезон: 1-32 серии из 32] (2022) SATRip от Files-x 1 16.58 GB
Find all related releases Наш спецназ
[Profile] [PM]
Display posts:    
Reply to topic

Current time is: 31-May 02:09

All times are UTC + 3



You cannot post new topics in this forum
You cannot reply to topics in this forum
You cannot edit your posts in this forum
You cannot delete your posts in this forum
You cannot vote in polls in this forum
You cannot attach files in this forum
You cannot download files in this forum