Красные линии [1-6 серии из 6] (2024) WEBRip-AVC от Files-х

Reply to topic
 
Author Message

Серый1779 ®

Gender: Male

Longevity: 5 years 7 months

Posts: 3603

Location: Украина

Post 16-May-2024 12:47

[Quote]

Красные линии
Год выпуска: 2024
Жанр: Драма, триллер
Выпущено: Россия, Кинокомпания "Yellow, Black & White", STARТ
Режиссер: Гамлет Дульян
В ролях: Полина Гагарина, Александра Флоринская, Илья Любимов, Ростислав Бершауэр, Алексей Маклаков, Сергей Бредюк, Тина Стойилкович, Евгений Писарев, Маша Бриш, Евгения Синицкая, Лиза Хапова, Елена Тышковская, Валентин Самохин
О фильме: Популярный коуч Елена Берн, известная также как тетя Лена, принадлежит к тому типу женщин, которых невозможно забыть. На ее канал в соцсетях подписаны миллионы людей. Первое знакомство с этой героиней происходит в финальном сезоне проекта «Бывшие». Но действие спин-оффа разворачивается за три года до этих событий - когда Лена решает отправиться в Москву, мечтая издать свой роман и познакомиться с кумиром. Но расплата за успех и стремительный взлет бывает чрезмерно высока. Лене предстоит пережить абьюзивные отношения, которые с большим трудом удается разорвать, однако она тут же попадается на удочку кумира, став теперь уже его жертвой. Но все эти испытания лишь закаляют ее характер.

Качество: WEBRip-AVC
Видео: MPEG-4 AVC, ~ 1600 Кбит/с, 1024x546, 25 кадр/с
Аудио: AC3, 2 ch, 192 Кбит/с
Продолжительность: 6 х ~ 00:44:23
Перевод: Не требуется [Русский]
Cубтитры: Русские

Скриншоты



MediaInfo

General
Unique ID : 315413297071135357510466012211880675756 (0xED4A6430BD8FD5B996E92944AB7C49AC)
Complete name : E:\01.Красные линии.(2024).WEBRip.(AVC).by.Серый1779.Files-x.mkv
Format : Matroska
Format version : Version 4 / Version 2
File size : 569 MiB
Duration : 44 min 23 s
Overall bit rate : 1 794 kb/s
Encoded date : UTC 2024-05-17 11:53:28
Writing application : mkvmerge v32.0.0 ('Astral Progressions') 64-bit
Writing library : libebml v1.3.7 + libmatroska v1.5.0
Video
ID : 1
Format : AVC
Format/Info : Advanced Video Codec
Format profile : High@L4.1
Format settings : CABAC / 9 Ref Frames
Format settings, CABAC : Yes
Format settings, RefFrames : 9 frames
Codec ID : V_MPEG4/ISO/AVC
Duration : 44 min 23 s
Bit rate : 1 600 kb/s
Width : 1 024 pixels
Height : 432 pixels
Display aspect ratio : 2.40:1
Frame rate mode : Constant
Frame rate : 25.000 FPS
Color space : YUV
Chroma subsampling : 4:2:0
Bit depth : 8 bits
Scan type : Progressive
Bits/(Pixel*Frame) : 0.145
Stream size : 508 MiB (89%)
Writing library : x264 core 146 r2538 121396c
Encoding settings : cabac=1 / ref=9 / deblock=1:-2:-1 / analyse=0x3:0x133 / me=umh / subme=9 / psy=1 / psy_rd=1.00:0.15 / mixed_ref=1 / me_range=32 / chroma_me=1 / trellis=2 / 8x8dct=1 / cqm=0 / deadzone=21,11 / fast_pskip=0 / chroma_qp_offset=-3 / threads=18 / lookahead_threads=3 / sliced_threads=0 / nr=0 / decimate=1 / interlaced=0 / bluray_compat=0 / constrained_intra=0 / bframes=9 / b_pyramid=2 / b_adapt=2 / b_bias=0 / direct=1 / weightb=1 / open_gop=0 / weightp=2 / keyint=250 / keyint_min=25 / scenecut=40 / intra_refresh=0 / rc=2pass / mbtree=0 / bitrate=1600 / ratetol=1.0 / qcomp=0.60 / qpmin=0 / qpmax=69 / qpstep=4 / cplxblur=20.0 / qblur=0.5 / ip_ratio=1.40 / pb_ratio=1.30 / aq=2:1.00
Default : Yes
Forced : No
Color range : Limited
Color primaries : BT.709
Transfer characteristics : BT.709
Matrix coefficients : BT.709
Audio
ID : 2
Format : AC-3
Format/Info : Audio Coding 3
Format settings, Endianness : Big
Codec ID : A_AC3
Duration : 44 min 23 s
Bit rate mode : Constant
Bit rate : 192 kb/s
Channel(s) : 2 channels
Channel positions : Front: L R
Sampling rate : 48.0 kHz
Frame rate : 31.250 FPS (1536 SPF)
Bit depth : 16 bits
Compression mode : Lossy
Stream size : 61.0 MiB (11%)
Service kind : Complete Main
Default : Yes
Forced : No
Text
ID : 3
Format : UTF-8
Codec ID : S_TEXT/UTF8
Codec ID/Info : UTF-8 Plain Text
Duration : 41 min 1 s
Bit rate : 84 b/s
Count of elements : 399
Stream size : 25.5 KiB (0%)
Language : Russian
Default : No
Forced : No

Внимание! Раздача ведётся путём добавления новых серий

Раздача ведётся путём добавления новых серий, при каждом добавлении создаётся новый торрент. Чтобы начать докачку новой серии, пользователям необходимо сделать следующее:
- Остановить скачивание.
- Удалить старый торрент у себя из клиента (старые серии удалять не надо).
- Скачать новый торрент и запустить его у себя в клиенте вместо старого, при этом указать клиенту путь в старую папку куда и должно происходить скачивание новых серий.
Ваш клиент при этом должен произвести хеширование (проверку) старой папки (если не производит сам - помогите ему сделать это), и будет докачивать только те серии которых у вас ещё нет. Старые серии при этом не удаляются, а продолжают раздаваться!
Если вы уже удалили старые серии, то предотвратить повторную закачку старых серий можно, отжав галочку в соответствующих местах при запуске нового торрента. По возможности, желательно не удалять старые серии как можно дольше, чтобы релизер не столько продолжал раздавать старые серии, а смог сконцентрироваться на новых.
Релиз от:

Release was prepared by RG Files-x

[Profile] [PM]
Display posts:    
Reply to topic

Current time is: 17-Jun 19:02

All times are UTC + 3



You cannot post new topics in this forum
You cannot reply to topics in this forum
You cannot edit your posts in this forum
You cannot delete your posts in this forum
You cannot vote in polls in this forum
You cannot attach files in this forum
You cannot download files in this forum