Красные линии [1-6 серии из 6] (2024) WEBRip-AVC от Generalfilm | КПК

Reply to topic
 
Author Message

GORGIK ®

Gender: Male

Longevity: 5 years 8 months

Posts: 1575

Location: СССР

Post 04-Jun-2024 09:26

[Quote]

Красные линии Год выпуска: 2024
Жанр: Драма
Выпущено: Россия, Кинокомпания "Yellow, Black & White", STARТ
Режиссер: Гамлет Дульян
В ролях: Полина Гагарина, Александра Флоринская, Илья Любимов, Ростислав Бершауэр, Алексей Маклаков, Сергей Бредюк, Тина Стойилкович, Евгений Писарев, Маша Бриш, Евгения Синицкая, Лиза Хапова, Елена Тышковская, Валентин Самохин
О фильме: Популярный коуч Елена Берн, известная также как тетя Лена, принадлежит к тому типу женщин, которых невозможно забыть. На ее канал в соцсетях подписаны миллионы людей. Первое знакомство с этой героиней происходит в финальном сезоне проекта «Бывшие». Но действие спин-оффа разворачивается за три года до этих событий - когда Лена решает отправиться в Москву, мечтая издать свой роман и познакомиться с кумиром. Но расплата за успех и стремительный взлет бывает чрезмерно высока. Лене предстоит пережить абьюзивные отношения, которые с большим трудом удается разорвать, однако она тут же попадается на удочку кумира, став теперь уже его жертвой. Но все эти испытания лишь закаляют ее характер.

Качество: WEBRip-AVC
Видео: MPEG-4 AVC (x264), 640x272, ~ 500 kbps, 25.000 fps
Аудио: AAC LC, 48.0 KHz, 2 ch, 128 Kbps
Продолжительность: 6 х ~ 00:45:00
Перевод: Не требуется [Русский]
Cубтитры: Русские, внешние

Скриншоты


MediaInfo

Complete name : D:\кино\Krasnye.Linii.S01.2024.WEBRip-AVC.KPK.GF\Krasnye.Linii.s01e02.2024.WEBRip-AVC.KPK.GF.mp4
Format : MPEG-4
Codec ID : M4V (isom/iso2/avc1)
File size : 206 MiB
Duration : 45mn 31s
Overall bit rate mode : Variable
Overall bit rate : 634 Kbps
Writing application : Lavf53.19.0
Video
ID : 1
Format : AVC
Format/Info : Advanced Video Codec
Format profile : High@L4.1
Format settings, CABAC : Yes
Format settings, ReFrames : 8 frames
Codec ID : avc1
Codec ID/Info : Advanced Video Coding
Duration : 45mn 31s
Bit rate : 500 Kbps
Width : 640 pixels
Height : 272 pixels
Display aspect ratio : 2.35:1
Frame rate mode : Constant
Frame rate : 25.000 fps
Color space : YUV
Chroma subsampling : 4:2:0
Bit depth : 8 bits
Scan type : Progressive
Bits/(Pixel*Frame) : 0.115
Stream size : 163 MiB (79%)
Writing library : x264 core 146 r2538 121396c
Encoding settings : cabac=1 / ref=8 / deblock=1:-1:-1 / analyse=0x3:0x133 / me=umh / subme=10 / psy=1 / psy_rd=1.00:0.00 / mixed_ref=1 / me_range=24 / chroma_me=1 / trellis=2 / 8x8dct=1 / cqm=0 / deadzone=21,11 / fast_pskip=1 / chroma_qp_offset=-2 / threads=3 / lookahead_threads=1 / sliced_threads=0 / nr=0 / decimate=1 / interlaced=0 / bluray_compat=0 / constrained_intra=0 / bframes=8 / b_pyramid=2 / b_adapt=2 / b_bias=0 / direct=3 / weightb=1 / open_gop=0 / weightp=2 / keyint=250 / keyint_min=126 / scenecut=40 / intra_refresh=0 / rc_lookahead=40 / rc=2pass / mbtree=1 / bitrate=500 / ratetol=1.0 / qcomp=0.60 / qpmin=0 / qpmax=69 / qpstep=4 / cplxblur=20.0 / qblur=0.5 / ip_ratio=1.40 / aq=1:1.00
Menus : 3
Audio
ID : 2
Format : AAC
Format/Info : Advanced Audio Codec
Format profile : LC
Codec ID : 40
Duration : 45mn 31s
Bit rate mode : Variable
Bit rate : 128 Kbps
Channel(s) : 2 channels
Channel positions : Front: L R
Sampling rate : 48.0 KHz
Frame rate : 46.875 fps (1024 spf)
Compression mode : Lossy
Stream size : 41.6 MiB (20%)
Default : Yes
Alternate group : 1
Menus : 3

Внимание! Раздача ведётся путём добавления новых серий

Раздача ведётся путём добавления новых серий, при каждом добавлении создаётся новый торрент. Чтобы начать докачку новой серии, пользователям необходимо сделать следующее:
- Остановить скачивание.
- Удалить старый торрент у себя из клиента (старые серии удалять не надо).
- Скачать новый торрент и запустить его у себя в клиенте вместо старого, при этом указать клиенту путь в старую папку куда и должно происходить скачивание новых серий.
Ваш клиент при этом должен произвести хеширование (проверку) старой папки (если не производит сам - помогите ему сделать это), и будет докачивать только те серии которых у вас ещё нет. Старые серии при этом не удаляются, а продолжают раздаваться!
Релиз от:
Related releases "Красные линии" (1):
Added Topic title Size
13 Jun 24  Красные линии [1-6 серии из 6] (2024) WEBRip-AVC от Files-х 3.39 GB
Find all related releases Красные линии
[Profile] [PM]

GORGIK ®

Gender: Male

Longevity: 5 years 8 months

Posts: 1575

Location: СССР

Post 09-Jun-2024 14:55 (after 5 days)

[Quote]

Весь сезон
[Profile] [PM]
Display posts:    
Reply to topic

Current time is: 23-Jul 17:24

All times are UTC + 3



You cannot post new topics in this forum
You cannot reply to topics in this forum
You cannot edit your posts in this forum
You cannot delete your posts in this forum
You cannot vote in polls in this forum
You cannot attach files in this forum
You cannot download files in this forum