Закон тайги / Закон - тайга [1-32 серии из 32] (2023) WEB-DLRip от Files-x

Reply to topic
 
Author Message

patriot67 ®

Gender: Male

Longevity: 4 years 8 months

Posts: 325

Post 03-Jun-2024 19:05

[Quote]

Закон тайги / Закон - тайга Год выпуска: 2023
Жанр: Детектив, боевик
Выпущено: Россия, Кинокомпания "Триикс Медиа" по заказу Пятого канала
Режиссер: Александр Колесник, Сергей Горбачев
В ролях: Александр Дьяченко, Евгения Шахнович, Елена Карпова, Евгений Тележкин, Андрей Мокеев, Виталий Такс, Богдан Гудыменко, Алексей Винда, Юлия Скороход, Назим Ниязов, Руслан Бальбуциев, Сергей Шоколов, Светлана Ваганова, Владимир Бирюков, Олеся Бережная, Александр Петров (VI), Мария Раева, Дмитрий Аршанский, Глафира Козулина, Илья Божко, Илья Старосельский, Антон Емельянов-Молчанов, Светлана Перфильева, Кирилл Долгов, Роман Притула, Антон Сычёв, Александр Глебов, Константин Медовиков, Дмитрий Лебедев, Дмитрий Мурашев, Дмитрий Матюхин, Валентина Муравская, Юрий Решетников (II), Дмитрий Соловьёв (II), Александр Гаврилов (III), Артём Гайдук, Данил Визжалов
О фильме: Главный герой детектива – бывший полковник военной контрразведки Николай Устюжанин. Прирожденный оперативник, мастер рукопашного боя и стрельбы. Следует своим принципам, но может быстро подстроиться под текущую ситуацию, действовать спонтанно. При этом не задумывается о последствиях лично для себя, если цель будет достигнута. После провала операции и гибели агента Устюжанина отстраняют от службы до конца расследования. Полковник уверен, что в рядах отдела есть предатель. Чтобы его выманить, оперативник устраивает ловлю на живца. Николай уезжает в глухую деревню и ждет появления "крота", который, по расчетам Устюжанина, непременно решит его убрать.

Качество: WEB-DLRip
Видео: XviD, ~ 1600 Кбит/с, 720x400, 25 кадр/с
Аудио: AC3, 2 ch, 192 Кбит/с
Продолжительность: 32 x ~ 00:42:22
Перевод: Не требуется
Cубтитры: Нет

Скриншоты




MediaInfo

Общее
Полное имя : D:\films\Закон тайги.2023.WEB-DLRip.Files-x\01. Закон тайги.2023.WEB-DLRip.Files-x.avi
Формат : AVI
Формат/Информация : Audio Video Interleave
Настройки формата : BitmapInfoHeader / WaveFormatEx
Размер файла : 544 Мбайт
Продолжительность : 42 м. 22 с.
Общий поток : 1 794 Кбит/сек
Частота кадров : 25,000 кадров/сек
Программа кодирования : VirtualDubMod 1.5.10.3 | www.virtualdub-fr.org || (build 2550/release)
Библиотека кодирования : VirtualDubMod build 2550/release
Видео
Идентификатор : 0
Формат : MPEG-4 Visual
Профиль формата : Advanced Simple@L5
Настройки формата : BVOP1 / Custom Matrix
Параметр BVOP формата : 1
Параметр QPel формата : Нет
Параметр GMC формата : Без точки перехода
Параметр матрицы формата : Выборочная
Идентификатор кодека : XVID
Идентификатор кодека/Подсказка : XviD
Продолжительность : 42 м. 22 с.
Битрейт : 1 592 Кбит/сек
Ширина : 720 пикселей
Высота : 400 пикселей
Соотношение сторон : 16:9
Частота кадров : 25,000 кадров/сек
Цветовое пространство : YUV
Субдискретизация насыщенности : 4:2:0
Битовая глубина : 8 бит
Тип развёртки : Прогрессивная
Метод сжатия : С потерями
Бит/(Пиксели*Кадры) : 0.221
Размер потока : 482 Мбайт (89%)
Библиотека кодирования : XviD 73
Аудио
Идентификатор : 1
Формат : AC-3
Формат/Информация : Audio Coding 3
Коммерческое название : Dolby Digital
Идентификатор кодека : 2000
Продолжительность : 42 м. 22 с.
Вид битрейта : Постоянный
Битрейт : 192 Кбит/сек
Каналы : 2 канала
Channel layout : L R
Частота : 48,0 КГц
Частота кадров : 31,250 кадров/сек (1536 SPF)
Метод сжатия : С потерями
Размер потока : 58,2 Мбайт (11%)
Выравнивание : Разделение по промежуткам
Продолжительность промежутка : 40 мс. (1,00 видеокадр)
Время предзагрузки промежутка : 500 мс.
Service kind : Complete Main

Внимание! Раздача ведётся путём добавления новых серий

Раздача ведётся путём добавления новых серий, при каждом добавлении создаётся новый торрент. Чтобы начать докачку новой серии, пользователям необходимо сделать следующее:
- Остановить скачивание.
- Удалить старый торрент у себя из клиента (старые серии удалять не надо).
- Скачать новый торрент и запустить его у себя в клиенте вместо старого, при этом указать клиенту путь в старую папку куда и должно происходить скачивание новых серий.
Ваш клиент при этом должен произвести хеширование (проверку) старой папки (если не производит сам - помогите ему сделать это), и будет докачивать только те серии которых у вас ещё нет. Старые серии при этом не удаляются, а продолжают раздаваться!
Релиз от:

Release was prepared by RG Files-x

[Profile] [PM]
Display posts:    
Reply to topic

Current time is: 23-Jul 17:25

All times are UTC + 3



You cannot post new topics in this forum
You cannot reply to topics in this forum
You cannot edit your posts in this forum
You cannot delete your posts in this forum
You cannot vote in polls in this forum
You cannot attach files in this forum
You cannot download files in this forum