Закон тайги (Закон - тайга) [1-32 серии из 32] (2023) WEB-DLRip от Generalfilm | КПК

Reply to topic
 
Author Message

mjjhec ®

Gender: Male

Longevity: 5 years 8 months

Posts: 2216

Location: СССР

Post 08-Jul-2024 09:27

[Quote]

Закон тайги (Закон - тайга) Год выпуска: 2023
Жанр: Детектив
Выпущено: Россия, Кинокомпания "Триикс Медиа" по заказу Пятого канала
Режиссер: Александр Колесник, Сергей Горбачев
В ролях: Александр Дьяченко, Евгения Шахнович, Елена Карпова, Евгений Тележкин, Андрей Мокеев, Виталий Такс, Богдан Гудыменко, Алексей Винда, Юлия Скороход, Назим Ниязов, Руслан Бальбуциев, Сергей Шоколов, Светлана Ваганова, Владимир Бирюков, Олеся Бережная, Александр Петров (VI), Мария Раева, Дмитрий Аршанский, Глафира Козулина, Илья Божко, Илья Старосельский, Антон Емельянов-Молчанов, Светлана Перфильева, Кирилл Долгов, Роман Притула, Антон Сычёв, Александр Глебов, Константин Медовиков, Дмитрий Лебедев, Дмитрий Мурашев, Дмитрий Матюхин, Валентина Муравская, Юрий Решетников (II), Дмитрий Соловьёв (II), Александр Гаврилов (III), Артём Гайдук, Данил Визжалов.
О фильме: Главный герой детектива – бывший полковник военной контрразведки Николай Устюжанин. Прирожденный оперативник, мастер рукопашного боя и стрельбы. Следует своим принципам, но может быстро подстроиться под текущую ситуацию, действовать спонтанно. При этом не задумывается о последствиях лично для себя, если цель будет достигнута. После провала операции и гибели агента Устюжанина отстраняют от службы до конца расследования. Полковник уверен, что в рядах отдела есть предатель. Чтобы его выманить, оперативник устраивает ловлю на живца. Николай уезжает в глухую деревню и ждет появления "крота", который, по расчетам Устюжанина, непременно решит его убрать.
Качество: WEB-DLRip | КПК
Видео: H.264, 640x360 (16:9), 25 fps, 400 kb/s
Аудио: AAC, 44.1 kHz, 2 ch, 128 kb/s
Продолжительность: 32 x ~00:42:00
Перевод: Не требуется

Скриншоты


MediaInfo

Complete name : F:\Rip\Zakon.tajgi.by.mjjhec\03. Закон тайги.2023.WEB-DLRip.mp4
Format : MPEG-4
Format profile : Base Media
Codec ID : isom (isom/avc1)
File size : 164 MiB
Duration : 43 min 4 s
Overall bit rate mode : Variable
Overall bit rate : 531 kb/s
Frame rate : 25.000 FPS
Encoded date : 2024-07-01 06:31:28 UTC
Tagged date : 2024-07-01 06:31:28 UTC
Video
ID : 1
Format : AVC
Format/Info : Advanced Video Codec
Format profile : High@L4.1
Format settings : CABAC / 14 Ref Frames
Format settings, CABAC : Yes
Format settings, Reference : 14 frames
Codec ID : avc1
Codec ID/Info : Advanced Video Coding
Duration : 43 min 4 s
Bit rate : 400 kb/s
Maximum bit rate : 1 448 kb/s
Width : 640 pixels
Height : 360 pixels
Display aspect ratio : 16:9
Frame rate mode : Constant
Frame rate : 25.000 FPS
Color space : YUV
Chroma subsampling : 4:2:0
Bit depth : 8 bits
Scan type : Progressive
Bits/(Pixel*Frame) : 0.069
Stream size : 123 MiB (75%)
Writing library : x264 core 125 r2208 d9d2288
Encoding settings : cabac=1 / ref=14 / deblock=1:-1:-1 / analyse=0x3:0x113 / me=umh / subme=10 / psy=1 / psy_rd=1.00:0.10 / mixed_ref=1 / me_range=32 / chroma_me=1 / trellis=2 / 8x8dct=1 / cqm=0 / deadzone=21,11 / fast_pskip=0 / chroma_qp_offset=-3 / threads=6 / lookahead_threads=1 / sliced_threads=0 / nr=0 / decimate=0 / interlaced=0 / bluray_compat=0 / constrained_intra=0 / bframes=11 / b_pyramid=2 / b_adapt=2 / b_bias=0 / direct=3 / weightb=1 / open_gop=0 / weightp=2 / keyint=240 / keyint_min=24 / scenecut=40 / intra_refresh=0 / rc=2pass / mbtree=0 / bitrate=400 / ratetol=1.0 / qcomp=0.60 / qpmin=0 / qpmax=69 / qpstep=4 / cplxblur=20.0 / qblur=0.5 / ip_ratio=1.40 / pb_ratio=1.30 / aq=1:1.00
Encoded date : 2024-07-01 06:31:28 UTC
Tagged date : 2024-07-01 06:31:32 UTC
Codec configuration box : avcC
Audio
ID : 2
Format : AAC LC
Format/Info : Advanced Audio Codec Low Complexity
Codec ID : mp4a-40-2
Duration : 43 min 4 s
Bit rate mode : Variable
Bit rate : 128 kb/s
Maximum bit rate : 136 kb/s
Channel(s) : 2 channels
Channel layout : L R
Sampling rate : 44.1 kHz
Frame rate : 43.066 FPS (1024 SPF)
Compression mode : Lossy
Stream size : 39.4 MiB (24%)
Encoded date : 2024-07-01 06:31:31 UTC
Tagged date : 2024-07-01 06:31:32 UTC
Релиз от:
[Profile] [PM]
Display posts:    
Reply to topic

Current time is: 23-Jul 18:21

All times are UTC + 3



You cannot post new topics in this forum
You cannot reply to topics in this forum
You cannot edit your posts in this forum
You cannot delete your posts in this forum
You cannot vote in polls in this forum
You cannot attach files in this forum
You cannot download files in this forum