Закон тайги / Закон - тайга [1 сезон: 1-32 серии из 32] (2023-2024) SATRip от Files-x

Reply to topic
 
Author Message

Nicodem ®

Gender: Male

Longevity: 5 years 7 months

Posts: 1439

Post 02-Jun-2024 03:13

[Quote]

Закон тайги / Закон - тайга
Год выпуска: 2023-2024
Жанр: Детектив, боевик
Выпущено: Россия, Триикс Медиа
Режиссер: Александр Колесник, Сергей Горбачев
В ролях: Александр Дьяченко, Евгения Шахнович, Елена Карпова, Евгений Тележкин, Андрей Мокеев, Виталий Такс, Богдан Гудыменко, Алексей Винда, Юлия Скороход, Назим Ниязов, Руслан Бальбуциев, Сергей Шоколов, Светлана Ваганова, Владимир Бирюков, Олеся Бережная, Александр Петров (VI), Мария Раева, Дмитрий Аршанский, Глафира Козулина, Илья Божко, Илья Старосельский, Антон Емельянов-Молчанов, Светлана Перфильева, Кирилл Долгов, Роман Притула, Антон Сычёв, Александр Глебов, Константин Медовиков, Дмитрий Лебедев, Дмитрий Мурашев, Дмитрий Матюхин, Валентина Муравская, Юрий Решетников (II), Дмитрий Соловьёв (II), Александр Гаврилов (III), Артём Гайдук, Данил Визжалов
О фильме: Главный герой детектива – бывший полковник военной контрразведки Николай Устюжанин. Прирожденный оперативник, мастер рукопашного боя и стрельбы. Следует своим принципам, но может быстро подстроиться под текущую ситуацию, действовать спонтанно. При этом не задумывается о последствиях лично для себя, если цель будет достигнута. После провала операции и гибели агента Устюжанина отстраняют от службы до конца расследования. Полковник уверен, что в рядах отдела есть предатель. Чтобы его выманить, оперативник устраивает ловлю на живца. Николай уезжает в глухую деревню и ждет появления "крота", который, по расчетам Устюжанина, непременно решит его убрать.

Качество: SATRip
Видео: XviD, ~ 1610 Кбит/с, 720x400, 25 кадр/с
Аудио: AC3, 2 ch, 192 Кбит/с
Продолжительность: 32 x ~ 00:42:10
Перевод: Не требуется
Субтитры: Нет

Скриншоты



MediaInfo

General
Complete name : C:001.Закон тайги (Закон-тайга).s01.E01.(2023).SATRip.by.Nicodem.Files-x.avi
Format : AVI
Format/Info : Audio Video Interleave
File size : 540 MiB
Duration : 41mn 41s
Overall bit rate : 1 812 Kbps
Writing application : VirtualDubMod 1.5.10.3 | www.virtualdub-fr.org || (build 2550/release)
Writing library : VirtualDubMod build 2550/release
Video
ID : 0
Format : MPEG-4 Visual
Format profile : Advanced Simple@L5
Format settings, BVOP : 1
Format settings, QPel : No
Format settings, GMC : No warppoints
Format settings, Matrix : Custom
Codec ID : XVID
Codec ID/Hint : XviD
Duration : 41mn 41s
Bit rate : 1 610 Kbps
Width : 720 pixels
Height : 400 pixels
Display aspect ratio : 16:9
Frame rate : 25.000 fps
Color space : YUV
Chroma subsampling : 4:2:0
Bit depth : 8 bits
Scan type : Progressive
Compression mode : Lossy
Bits/(Pixel*Frame) : 0.224
Stream size : 480 MiB (89%)
Writing library : XviD 73
Audio
ID : 1
Format : AC-3
Format/Info : Audio Coding 3
Mode extension : CM (complete main)
Codec ID : 2000
Duration : 41mn 41s
Bit rate mode : Constant
Bit rate : 192 Kbps
Channel(s) : 2 channels
Channel positions : Front: L R
Sampling rate : 48.0 KHz
Bit depth : 16 bits
Compression mode : Lossy
Stream size : 57.3 MiB (11%)
Alignment : Split accross interleaves
Interleave, duration : 40 ms (1.00 video frame)
Interleave, preload duration : 500 ms

Содержание

(001) 001 серия "Беспокойное хозяйство"
(002) 002 серия "Проблемы воспитания"
(003) 003 серия "Нечистая сила"
(004) 004 серия "Лёд"
(005) 005 серия "Чёрная роза - эмблема печали"
(006) 006 серия "Эксцесс исполнителя"
(007) 007 серия "И ещё немного о любви"
(008) 008 серия "Дикая охота"
(009) 009 серия "Из жизни отдыхающих"
(010) 010 серия "Час нетопыря"
(011) 011 серия "Сатисфакция"
(012) 012 серия "Утиная охота"
(013) 013 серия "Светлого мая привет"
(014) 014 серия "Дураки умирают по пятницам"
(015) 015 серия "Порог бессмертия"
(016) 016 серия "Высшая справедливость"
(017) 017 серия "Морковка для Энштейна"
(018) 018 серия "Кровохлебка"
(019) 019 серия "Родная кровь"
(020) 020 серия "Без срока давности"
(021) 021 серия "Бес свидетелей"
(022) 022 серия "Русский транзит"
(023) 023 серия "Капкан для финансиста"
(024) 024 серия "Молчание овец"
(025) 025 серия "Земля росомахи"
(026) 026 серия "Группа Ласточкина"
(027) 027 серия "Кризис доверия"
(028) 028 серия "Ящик Пандора"
(029) 029 серия "Закон - Тайга"
(030) 030 серия "В диких условиях"
(031) 031 серия "Таёжный ретрит"
(032) 032 серия "Львиная доля"

Раздача ведётся путём добавления новых серий

Внимание! Раздача ведётся путём добавления новых серий; при каждом добавлении создаётся новый торрент.
Чтобы начать докачку новой серии, пользователям необходимо сделать следующее:
1. Остановить скачивание;
2. Удалить старый торрент у себя из клиента (старые серии удалять не надо);
3. Скачать новый торрент и запустить его у себя в клиенте вместо старого, при этом указать клиенту путь в старую папку куда и должно происходить скачивание новых серий. Ваш клиент при этом должен произвести хеширование (проверку) старой папки и будет докачивать только те серии, которых у вас ещё нет. Старые серии при этом не удаляются, а продолжают раздаваться! Eсли вы уже удалили старые серии, то предотвратить повторную закачку старых серий можно, отжав галочку в соответствующих местах при запуске нового торрента.
Релиз от:

Release was prepared by RG Files-x

[Profile] [PM]
Display posts:    
Reply to topic

Current time is: 24-Jun 22:21

All times are UTC + 3



You cannot post new topics in this forum
You cannot reply to topics in this forum
You cannot edit your posts in this forum
You cannot delete your posts in this forum
You cannot vote in polls in this forum
You cannot attach files in this forum
You cannot download files in this forum