Сорвиголова / Daredevil [1 сезон: 1-13 серии из 13] (2015) WEBRip 1080p | LostFilm, NewStudio, BaibaKo, Jaskier

Reply to topic
 
Author Message

Winchester96 ®

Gender: Male

Longevity: 1 year

Posts: 12

Location: Казахстан

Post 02-Dec-2018 10:08

[Quote]

Сорвиголова / Daredevil [1 сезон: 1-13 серии из 13]
Год выпуска: 2015
Жанр: Фантастика, боевик, драма, криминал
Выпущено: США, ABC Television Studio, Marvel Entertainment, Walt Disney Company
Режиссер: Фил Абрахам, Фэррен Блэкберн, Стивен С. Денайт, Гай Ферлэнд
В ролях: Чарли Кокс, Дебора Энн Уолл, Элден Хенсон, Розарио Доусон, Винсент Д’Онофрио, Айелет Зурер и др.
О фильме: Адвокат Мэтт Мердок, лишился зрения в девять лет из-за аварии, в которой перевернулся грузовик с радиоактивной жидкостью. Химия попала маленькому Мэтту в глаза, и он навсегда ослеп. Вдобавок ко всему мальчик, выросший в Адской кухне, самом опасном и бедном районе Нью-Йорка, вскоре после происшествия потерял отца и угодил в приют. Со временем Мердок осознал, что остальные органы чувств у него значительно обострились. Не без помощи такого же слепого наставника Стика (Скотт Гленн) Мэтт научился не только адаптироваться к жизни инвалида, но и оборачивать новые способности в свою пользу. Он решил очистить Адскую кухню от преступности, для чего стал адвокатом. Днем он — законопослушный юрист Мэттью Мердок, а ночью — отчаянный каратель Сорвиголова.

Качество: WEBRip 1080p
Видео: 1920x1080(1.778), 23.976 fps, ~9115 kbps
Аудио Rus#1: AC-3, 48 KHz, 6 ch, 384 kbps | LostFilm
Аудио Rus#2: AC-3, 48 KHz, 6 ch, 384 kbps | NewStudio
Аудио Rus#3: AC-3, 48 KHz, 6 ch, 384 kbps | BaibaKo
Аудио Rus#4: AC-3, 48 KHz, 6 ch, 384 kbps | Jaskier
Аудио Eng: AC-3, 48 KHz, 6 ch, 384 kbps
Продолжительность: 00:53:00
Перевод№1: Профессиональный (многоголосый закадровый) LostFilm
Перевод№2: Профессиональный (многоголосый закадровый) NewStudio
Перевод№3: Любительский (многоголосый закадровый) BaibaKo
Перевод№4: Профессиональный (многоголосый закадровый) Jaskier
Cубтитры: Русские (notabenoid), английские

Скриншоты

MediaInfo

Общее
Уникальный идентификатор : 178098809617780190549768767960483197847 (0x85FC9542C8287984ACFCC18E37817397)
Полное имя : G:FilmsMarvels.Daredevil.S01.1080p.L.N.B.JMarvels.Daredevil.S01E01.1080p.WEBRip.4xRus.Eng.mkv
Формат : Matroska
Версия формата : Version 4 / Version 2
Размер файла : 4,16 Гбайт
Продолжительность : 52 м.
Общий поток : 11,3 Мбит/сек
Дата кодирования : UTC 2015-06-07 08:48:35
Программа кодирования : mkvmerge v7.9.0 ('Birds') 64bit
Библиотека кодирования : libebml v1.3.1 + libmatroska v1.4.2
_STATISTICS_WRITING_APP : mkvmerge v7.9.0 ('Birds') 64bit
_STATISTICS_WRITING_DATE_UTC : 2015-06-07 08:48:35
_STATISTICS_TAGS : BPS DURATION NUMBER_OF_FRAMES NUMBER_OF_BYTES
DURATION : 00:52:50.944000000
NUMBER_OF_FRAMES : 99092
NUMBER_OF_BYTES : 152205312
Видео
Идентификатор : 1
Формат : AVC
Формат/Информация : Advanced Video Codec
Профиль формата : High@L4.1
Параметр CABAC формата : Да
Параметр ReFrames формата : 4 кадра
Идентификатор кодека : V_MPEG4/ISO/AVC
Продолжительность : 52 м.
Битрейт : 9128 Кбит/сек
Ширина : 1920 пикселей
Высота : 1080 пикселей
Соотношение сторон : 16:9
Режим частоты кадров : Постоянный
Частота кадров : 23,976 кадра/сек
Цветовое пространство : YUV
Субдискретизация насыщенности : 4:2:0
Битовая глубина : 8 бит
Тип развёртки : Прогрессивная
Бит/(Пиксели*Кадры) : 0.184
Размер потока : 3,37 Гбайт (81%)
Библиотека кодирования : x264 core 144 r2525 40bb568
Настройки программы : cabac=1 / ref=4 / deblock=1:-3:-3 / analyse=0x3:0x133 / me=umh / subme=10 / psy=1 / psy_rd=1.00:0.00 / mixed_ref=1 / me_range=48 / chroma_me=1 / trellis=2 / 8x8dct=1 / cqm=0 / deadzone=21,11 / fast_pskip=0 / chroma_qp_offset=-2 / threads=12 / lookahead_threads=2 / sliced_threads=0 / nr=0 / decimate=0 / interlaced=0 / bluray_compat=0 / constrained_intra=0 / bframes=7 / b_pyramid=2 / b_adapt=2 / b_bias=0 / direct=3 / weightb=1 / open_gop=0 / weightp=2 / keyint=250 / keyint_min=24 / scenecut=40 / intra_refresh=0 / rc_lookahead=150 / rc=crf / mbtree=0 / crf=18.0 / qcomp=0.75 / qpmin=0 / qpmax=69 / qpstep=4 / vbv_maxrate=62500 / vbv_bufsize=78125 / crf_max=0.0 / nal_hrd=none / filler=0 / ip_ratio=1.40 / pb_ratio=1.30 / aq=1:0.70
Язык : English
Default : Да
Forced : Нет
_STATISTICS_WRITING_APP : mkvmerge v7.9.0 ('Birds') 64bit
_STATISTICS_WRITING_DATE_UTC : 2015-06-07 08:48:35
_STATISTICS_TAGS : BPS DURATION NUMBER_OF_FRAMES NUMBER_OF_BYTES
DURATION : 00:52:50.960000000
NUMBER_OF_FRAMES : 76027
NUMBER_OF_BYTES : 3705744902
Аудио #1
Идентификатор : 2
Формат : AC-3
Формат/Информация : Audio Coding 3
Расширение режима : CM (complete main)
Параметр Endianness формата : Big
Идентификатор кодека : A_AC3
Продолжительность : 52 м.
Вид битрейта : Постоянный
Битрейт : 384 Кбит/сек
Каналы : 6 каналов
Расположение каналов : Front: L C R, Side: L R, LFE
Частота : 48,0 КГц
Битовая глубина : 16 бит
Метод сжатия : С потерями
Размер потока : 145 Мбайт (3%)
Заголовок : LostFilm 5.1
Язык : Russian
Default : Да
Forced : Нет
Аудио #2
Идентификатор : 3
Формат : AC-3
Формат/Информация : Audio Coding 3
Расширение режима : CM (complete main)
Параметр Endianness формата : Big
Идентификатор кодека : A_AC3
Продолжительность : 52 м.
Вид битрейта : Постоянный
Битрейт : 384 Кбит/сек
Каналы : 6 каналов
Расположение каналов : Front: L C R, Side: L R, LFE
Частота : 48,0 КГц
Битовая глубина : 16 бит
Метод сжатия : С потерями
Размер потока : 145 Мбайт (3%)
Заголовок : NewStudio 5.1
Язык : Russian
Default : Нет
Forced : Нет
Аудио #3
Идентификатор : 4
Формат : AC-3
Формат/Информация : Audio Coding 3
Расширение режима : CM (complete main)
Параметр Endianness формата : Big
Идентификатор кодека : A_AC3
Продолжительность : 52 м.
Вид битрейта : Постоянный
Битрейт : 384 Кбит/сек
Каналы : 6 каналов
Расположение каналов : Front: L C R, Side: L R, LFE
Частота : 48,0 КГц
Битовая глубина : 16 бит
Метод сжатия : С потерями
Размер потока : 145 Мбайт (3%)
Заголовок : BaibaKo 5.1
Язык : Russian
Default : Нет
Forced : Нет
Аудио #4
Идентификатор : 5
Формат : AC-3
Формат/Информация : Audio Coding 3
Расширение режима : CM (complete main)
Параметр Endianness формата : Big
Идентификатор кодека : A_AC3
Продолжительность : 52 м.
Вид битрейта : Постоянный
Битрейт : 384 Кбит/сек
Каналы : 6 каналов
Расположение каналов : Front: L C R, Side: L R, LFE
Частота : 48,0 КГц
Битовая глубина : 16 бит
Метод сжатия : С потерями
Размер потока : 145 Мбайт (3%)
Заголовок : Jaskier
Язык : Russian
Default : Нет
Forced : Нет
Аудио #5
Идентификатор : 6
Формат : AC-3
Формат/Информация : Audio Coding 3
Расширение режима : CM (complete main)
Параметр Endianness формата : Big
Идентификатор кодека : A_AC3
Продолжительность : 52 м.
Вид битрейта : Постоянный
Битрейт : 384 Кбит/сек
Каналы : 6 каналов
Расположение каналов : Front: L C R, Side: L R, LFE
Частота : 48,0 КГц
Битовая глубина : 16 бит
Метод сжатия : С потерями
Размер потока : 145 Мбайт (3%)
Заголовок : original 5.1
Язык : English
Default : Нет
Forced : Нет
Текст #1
Идентификатор : 7
Формат : UTF-8
Идентификатор кодека : S_TEXT/UTF8
Идентификатор кодека/Информация : UTF-8 Plain Text
Заголовок : rus
Язык : Russian
Default : Нет
Forced : Нет
Текст #2
Идентификатор : 8
Формат : UTF-8
Идентификатор кодека : S_TEXT/UTF8
Идентификатор кодека/Информация : UTF-8 Plain Text
Заголовок : CC
Язык : English
Default : Нет
Forced : Нет
[Profile] [PM]
Display posts:    
Reply to topic

Current time is: 15-Nov 01:42

All times are UTC + 3



You cannot post new topics in this forum
You cannot reply to topics in this forum
You cannot edit your posts in this forum
You cannot delete your posts in this forum
You cannot vote in polls in this forum
You cannot attach files in this forum
You cannot download files in this forum