Сорвиголова / Daredevil [3 сезон: 1-13 серии из 13] (2018) WEBRip | NewStudio

Reply to topic
 
Author Message

Мухич ®

Gender: Male

Longevity: 1 year

Posts: 53

Post 24-Nov-2018 16:29

[Quote]

Сорвиголова / Daredevil
Год выпуска: 2018
Жанр: Фантастика, боевик
Выпущено: США, ABC Television Studio, Marvel Entertainment
Режиссер: Фил Абрахам, Фэррен Блэкберн, Стивен С. ДеНайт
В ролях: Чарли Кокс, Дебора Энн Уолл, Элден Хенсон, Розарио Доусон, Винсент Д`Онофрио, Айелет Зурер, Боб Гантон, Тоби Мур, Вонди Куртис-Холл, Роб Морган
О фильме: Он живёт в мире вечной ночи, но эта темнота заполнена звуками и запахами, её можно попробовать на вкус и потрогать руками. Адвокат Мэтт Мёрдок слеп, но остальные органы чувств у него работают, как у супермена. Днём Мёрдок защищает униженных и оскорблённых в зале суда, а ночью превращается в супергероя в маске, восстанавливая справедливость на улицах города самыми радикальными методами.

Качество: WEBRip
Видео: XviD, 1490 Кбит/с, 720x400
Аудио:1 Русский: MP3, 2 ch, 128 Кбит/с
Аудио:2 Английский: MP3, 2 ch, 128 Кбит/с
Продолжительность: 13 x ~ 00:53:00
Перевод: Профессиональный (многоголосый, закадровый) (NewStudio)
Субтитры: Русские, английские
Без рекламы

Скриншоты

MediaInfo

Общее
Полное имя : E:\Daredevil (Season 3) WEBRip\Daredevil.S03E01.Resurrection.WEBRip.[Wentworth_Miller].avi
Формат : AVI
Формат/Информация : Audio Video Interleave
Размер файла : 672 Мбайт
Продолжительность : 53 м. 23 с.
Общий поток : 1760 Кбит/сек
Программа кодирования : VirtualDubMod 1.5.10.2 (build 2540/release)
Библиотека кодирования : VirtualDubMod build 2540/release
Видео
Идентификатор : 0
Формат : MPEG-4 Visual
Профиль формата : Advanced Simple@L5
Настройки формата : BVOP1
Параметр BVOP формата : 1
Параметр QPel формата : Нет
Параметр GMC формата : Без точки перехода
Параметр матрицы формата : Default (MPEG)
Идентификатор кодека : XVID
Идентификатор кодека/Подсказка : XviD
Продолжительность : 53 м. 23 с.
Битрейт : 1490 Кбит/сек
Ширина : 720 пикселей
Высота : 400 пикселей
Соотношение сторон : 16:9
Частота кадров : 23,976 (24000/1001) кадра/сек
Цветовое пространство : YUV
Субдискретизация насыщенности : 4:2:0
Битовая глубина : 8 бит
Тип развёртки : Прогрессивная
Метод сжатия : С потерями
Бит/(Пиксели*Кадры) : 0.216
Размер потока : 569 Мбайт (85%)
Библиотека кодирования : XviD 61
Аудио #1
Идентификатор : 1
Формат : MPEG Audio
Версия формата : Version 1
Профиль формата : Layer 3
Идентификатор кодека : 55
Идентификатор кодека/Подсказка : MP3
Продолжительность : 53 м. 23 с.
Вид битрейта : Постоянный
Битрейт : 128 Кбит/сек
Каналы : 2 канала
Частота : 48,0 КГц
Частота кадров : 41,667 кадра/сек (1152 SPF)
Метод сжатия : С потерями
Размер потока : 48,9 Мбайт (7%)
Выравнивание : Соединение по промежуткам
Продолжительность промежутка : 42 мс. (1,00 видеокадр)
Время предзагрузки промежутка : 504 мс.
Библиотека кодирования : LAME3.98r
Настройки программы : -m s -V 4 -q 2 -lowpass 17 -b 128
Аудио #2
Идентификатор : 2
Формат : MPEG Audio
Версия формата : Version 1
Профиль формата : Layer 3
Настройки формата : Joint stereo / MS Stereo
Идентификатор кодека : 55
Идентификатор кодека/Подсказка : MP3
Продолжительность : 53 м. 23 с.
Вид битрейта : Постоянный
Битрейт : 128 Кбит/сек
Каналы : 2 канала
Частота : 48,0 КГц
Метод сжатия : С потерями
Размер потока : 48,9 Мбайт (7%)
Выравнивание : Соединение по промежуткам
Продолжительность промежутка : 42 мс. (1,00 видеокадр)
Время предзагрузки промежутка : 504 мс.
Библиотека кодирования : LAME3.97
Автор релиза: Wanterlude feat. WentworthMille
[Profile] [PM]
Display posts:    
Reply to topic

Current time is: 21-Nov 04:55

All times are UTC + 3



You cannot post new topics in this forum
You cannot reply to topics in this forum
You cannot edit your posts in this forum
You cannot delete your posts in this forum
You cannot vote in polls in this forum
You cannot attach files in this forum
You cannot download files in this forum