Сорвиголова / Daredevil [3 сезон: 1-13 серии из 13] (2018) WEBRip 1080p | NewStudio

Reply to topic
 
Author Message

Winchester96 ®

Gender: Male

Longevity: 10 months 5 days

Posts: 12

Location: Казахстан

Post 02-Dec-2018 12:12

[Quote]

Сорвиголова / Daredevil [3 сезон: 1-13 серии из 13]
Название: Сорвиголова
Оригинальное название: Daredevil
Год выпуска: 2018
Жанр: Фантастика, боевик, драма, криминал
Выпущено: США, ABC Television Studio, Marvel Entertainment
Режиссер: Фил Абрахам, Фэррен Блэкберн, Стивен С. ДеНайт
В ролях: Чарли Кокс, Дебора Энн Уолл, Элден Хенсон, Розарио Доусон, Винсент Д`Онофрио, Айелет Зурер, Боб Гантон, Тоби Мур, Вонди Куртис-Холл, Роб Морган
О фильме: Он живёт в мире вечной ночи, но эта темнота заполнена звуками и запахами, её можно попробовать на вкус и потрогать руками. Адвокат Мэтт Мёрдок слеп, но остальные органы чувств у него работают, как у супермена. Днём Мёрдок защищает униженных и оскорблённых в зале суда, а ночью превращается в супергероя в маске, восстанавливая справедливость на улицах города самыми радикальными методами.

Качество: WEBRip 1080p
Видео: 1920x1080 at 23.976 fps, MPEG-4 AVC, ~5000 kbps avg
Аудио№1: Russian: 48 kHz, AC3, 6 ch, ~384 kbps avg |Многоголосый закадровый, NewStudio|
Аудио№2: English: 48 kHz, AC3, 6 ch, ~448 kbps avg
Продолжительность: 00:53:00
Перевод: Профессиональный (многоголосый закадровый) - NewStudio
Cубтитры: Russian (Forced, Full), English (Forced, Full)

Скриншоты

MediaInfo

Общее
Уникальный идентификатор : 20349636610486055958991542759829592357 (0xF4F328C1E955FA4906DECCBADD8D925)
Полное имя : C:\Marvels.Daredevil.S03.1080p.NewStudio.(Wanterlude)\Marvels.Daredevil.S03E01.Resurrection.1080p.NewStudio.(Wanterlude).mkv
Формат : Matroska
Версия формата : Version 4 / Version 2
Размер файла : 1,40 Гбайт
Продолжительность : 53 м. 23 с.
Режим общего битрейта : Переменный
Общий поток : 3762 Кбит/сек
Название фильма : Daredevil | Ep 01 | NewStudio
Дата кодирования : UTC 2018-10-31 15:22:33
Программа кодирования : mkvmerge v28.1.0 ('Morning Child') 64-bit
Библиотека кодирования : libebml v1.3.6 + libmatroska v1.4.9
Видео
Идентификатор : 1
Формат : AVC
Формат/Информация : Advanced Video Codec
Профиль формата : Main@L4
Настройки формата : CABAC / 3 Ref Frames
Параметр CABAC формата : Да
Параметр RefFrames формата : 3 кадра
Идентификатор кодека : V_MPEG4/ISO/AVC
Продолжительность : 53 м. 23 с.
Вид битрейта : Переменный
Битрейт : 2855 Кбит/сек
Номинальный битрейт : 3010 Кбит/сек
Максимальный битрейт : 4515 Кбит/сек
Ширина : 1920 пикселей
Высота : 1080 пикселей
Соотношение сторон : 16:9
Режим частоты кадров : Постоянный
Частота кадров : 23,976 (24000/1001) кадра/сек
Цветовое пространство : YUV
Субдискретизация насыщенности : 4:2:0
Битовая глубина : 8 бит
Тип развёртки : Прогрессивная
Бит/(Пиксели*Кадры) : 0.057
Размер потока : 1,06 Гбайт (76%)
Заголовок : Daredevil | Ep 01 | NewStudio
Библиотека кодирования : x264 core 148 r2715 7e75228
Настройки программы : cabac=1 / ref=3 / deblock=1:0:0 / analyse=0x1:0x111 / me=umh / subme=10 / psy=1 / psy_rd=1.00:0.00 / mixed_ref=1 / me_range=24 / chroma_me=1 / trellis=2 / 8x8dct=0 / cqm=0 / deadzone=21,11 / fast_pskip=1 / chroma_qp_offset=-2 / threads=8 / lookahead_threads=1 / sliced_threads=0 / nr=0 / decimate=1 / interlaced=0 / bluray_compat=0 / stitchable=1 / constrained_intra=0 / bframes=2 / b_pyramid=0 / b_adapt=2 / b_bias=0 / direct=3 / weightb=1 / open_gop=0 / weightp=2 / keyint=48 / keyint_min=25 / scenecut=0 / intra_refresh=0 / rc_lookahead=48 / rc=2pass / mbtree=1 / bitrate=3010 / ratetol=1.0 / qcomp=0.50 / qpmin=6 / qpmax=51 / qpstep=4 / cplxblur=20.0 / qblur=0.5 / vbv_maxrate=4515 / vbv_bufsize=6020 / nal_hrd=vbr / filler=0 / ip_ratio=1.40 / aq=1:1.00
Default : Да
Forced : Нет
Аудио #1
Идентификатор : 2
Формат : AC-3
Формат/Информация : Audio Coding 3
Идентификатор кодека : A_AC3
Продолжительность : 53 м. 23 с.
Вид битрейта : Постоянный
Битрейт : 384 Кбит/сек
Каналы : 6 каналов
Расположение каналов : Front: L C R, Side: L R, LFE
Частота : 48,0 КГц
Частота кадров : 31,250 кадров/сек (1536 SPF)
Битовая глубина : 16 бит
Метод сжатия : С потерями
Размер потока : 147 Мбайт (10%)
Заголовок : NewStudio | Wanterlude
Язык : Russian
ServiceKind/String : Complete Main
Default : Да
Forced : Да
Аудио #2
Идентификатор : 3
Формат : E-AC-3
Формат/Информация : Enhanced Audio Coding 3
Профиль формата : E-AC-3+Atmos / E-AC-3
Идентификатор кодека : A_EAC3
Продолжительность : 53 м. 23 с.
Вид битрейта : Постоянный
Битрейт : 448 Кбит/сек
Каналы : 15 objects / 6 каналов
Расположение каналов : 15 objects / Front: L C R, Side: L R, LFE
Частота : 48,0 КГц
Частота кадров : 187,500 кадров/сек (256 SPF)
Метод сжатия : С потерями
Размер потока : 171 Мбайт (12%)
Заголовок : English
Язык : English
ServiceKind/String : Complete Main
Default : Нет
Forced : Нет
Текст #1
Идентификатор : 4
Формат : ASS
Идентификатор кодека : S_TEXT/ASS
Идентификатор кодека/Информация : Advanced Sub Station Alpha
Метод сжатия : Без потерь
Заголовок : Forced
Язык : Russian
Default : Да
Forced : Да
Текст #2
Идентификатор : 5
Формат : UTF-8
Идентификатор кодека : S_TEXT/UTF8
Идентификатор кодека/Информация : UTF-8 Plain Text
Заголовок : Full
Язык : Russian
Default : Нет
Forced : Нет
Текст #3
Идентификатор : 6
Формат : UTF-8
Идентификатор кодека : S_TEXT/UTF8
Идентификатор кодека/Информация : UTF-8 Plain Text
Заголовок : SDH
Язык : English
Default : Нет
Forced : Нет
[Profile] [PM]
Display posts:    
Reply to topic

Current time is: 18-Sep 21:41

All times are UTC + 3



You cannot post new topics in this forum
You cannot reply to topics in this forum
You cannot edit your posts in this forum
You cannot delete your posts in this forum
You cannot vote in polls in this forum
You cannot attach files in this forum
You cannot download files in this forum