Сорвиголова / Daredevil [2 сезон: 1-13 cерии из 13] (2016) WEBRip 1080p | LostFilm, NewStudio, IdeaFilm, Jaskier

Reply to topic
 
Author Message

Winchester96 ®

Gender: Male

Longevity: 6 months 10 days

Posts: 12

Location: Казахстан

Post 02-Dec-2018 11:46

[Quote]

Сорвиголова / Daredevil
Год выпуска: 2016
Жанр: Фантастика, боевик, драма, криминал
Выпущено: США / ABC Television Studio, Marvel Entertainment, Walt Disney Company
Режиссер: Фил Абрахам, Стивен С. ДеНайт, Кен Джиротти
В ролях: Чарли Кокс, Дебора Энн Уолл, Элден Хенсон, Розарио Доусон, Винсент Д`Онофрио, Айелет Зурер, Боб Гантон, Тоби Мур, Вонди Куртис-Холл, Роб Морган и др.
О фильме: Мэтт Мердок отличный специалист, но в результате несчастного случае он потерял зрение еще в юном возрасте. Как известно, люди, потерявшие какой-либо орган чувств, усиливают все остальные рефлексы в несколько раз. Именно поэтому, лишенный зрения Мэрдок отлично чувствует и слышит все происходящее вокруг. Он решает посвятить свою жизнь борьбе с преступностью. Теперь он с утра и до вечера - успешный адвокат, а ночью превращается в неуловимого мстителя в маске по прозвищу Сорвиголова! Ночной город может спасть спокойно, когда на улицах города вершит правосудие этот человек, способный остановить любого злодея!

Качество: WEBRip 1080p
Видео: 1916x1076 (16:9), 23.976 fps, 8000 kbps
Аудио RUS#1: AC3, 48 KHz, 6 ch, 384 kbps - LostFilm
Аудио RUS#2: AC3, 48 KHz, 6 ch, 384 kbps - NewStudio
Аудио RUS#3: AC3, 48 KHz, 6 ch, 384 kbps - IdeaFilm
Аудио RUS#4: AC3, 48 KHz, 6 ch, 384 kbps - Jaskier
Аудио RUS#5: AC3, 48 KHz, 6 ch, 384 kbps - BaibaKo
Аудио ENG: AC3, 48 KHz, 6 ch, 384 kbps
Продолжительность: 00:45:00
Перевод№1: Профессиональный (многоголосый, закадровый) - LostFilm
Перевод№2: Профессиональный (многоголосый, закадровый) - NewStudio
Перевод№3: Профессиональный (многоголосый, закадровый) - IdeaFilm
Перевод№4: Профессиональный (многоголосый, закадровый) - Jaskier
Перевод№5: Любительский (многоголосый, закадровый) - BaibaKo
Cубтитры: Русские, английские, испанские, французские, немецкие

Скриншоты

MediaInfo

Общее
Уникальный идентификатор : 229955445253742955975215623676854961637 (0xACFFCECB40FF519EA4DB50B8AAD685E5)
Полное имя : C:\Marvels.Daredevil.S02.1080p.WEBRip.Sborka\Marvels.Daredevil.S02E01.1080p.WEBRip.Sborka.mkv
Формат : Matroska
Версия формата : Version 4 / Version 2
Размер файла : 3,54 Гбайт
Продолжительность : 48 м. 4 с.
Общий поток : 10,5 Мбит/сек
Дата кодирования : UTC 2016-04-02 16:48:45
Программа кодирования : mkvmerge v8.6.1 ('Flying') 64bit
Библиотека кодирования : libebml v1.3.3 + libmatroska v1.4.4
Видео
Идентификатор : 1
Формат : AVC
Формат/Информация : Advanced Video Codec
Профиль формата : High@L4.1
Настройки формата : CABAC / 4 Ref Frames
Параметр CABAC формата : Да
Параметр RefFrames формата : 4 кадра
Идентификатор кодека : V_MPEG4/ISO/AVC
Продолжительность : 48 м. 4 с.
Битрейт : 8022 Кбит/сек
Ширина : 1920 пикселей
Высота : 1080 пикселей
Соотношение сторон : 16:9
Режим частоты кадров : Постоянный
Частота кадров : 23,976 (24000/1001) кадра/сек
Цветовое пространство : YUV
Субдискретизация насыщенности : 4:2:0
Битовая глубина : 8 бит
Тип развёртки : Прогрессивная
Бит/(Пиксели*Кадры) : 0.161
Размер потока : 2,69 Гбайт (76%)
Библиотека кодирования : x264 core 148 r2665 a01e339
Настройки программы : cabac=1 / ref=4 / deblock=1:-1:-1 / analyse=0x3:0x133 / me=umh / subme=10 / psy=1 / psy_rd=1.05:0.00 / mixed_ref=1 / me_range=24 / chroma_me=1 / trellis=2 / 8x8dct=1 / cqm=0 / deadzone=21,11 / fast_pskip=1 / chroma_qp_offset=-2 / threads=24 / lookahead_threads=4 / sliced_threads=0 / nr=0 / decimate=1 / interlaced=0 / bluray_compat=0 / constrained_intra=0 / bframes=8 / b_pyramid=2 / b_adapt=2 / b_bias=0 / direct=3 / weightb=1 / open_gop=0 / weightp=2 / keyint=250 / keyint_min=23 / scenecut=40 / intra_refresh=0 / rc_lookahead=60 / rc=crf / mbtree=1 / crf=18.0 / qcomp=0.60 / qpmin=0 / qpmax=69 / qpstep=4 / ip_ratio=1.40 / aq=2:0.90
Default : Да
Forced : Нет
Цветовой диапазон : Limited
Основные цвета : BT.709
Характеристики трансфера : BT.709
Коэффициенты матрицы : BT.709
Аудио #1
Идентификатор : 2
Формат : AC-3
Формат/Информация : Audio Coding 3
Идентификатор кодека : A_AC3
Продолжительность : 48 м. 4 с.
Вид битрейта : Постоянный
Битрейт : 384 Кбит/сек
Каналы : 6 каналов
Расположение каналов : Front: L C R, Side: L R, LFE
Частота : 48,0 КГц
Частота кадров : 31,250 кадров/сек (1536 SPF)
Битовая глубина : 16 бит
Метод сжатия : С потерями
Размер потока : 132 Мбайт (4%)
Заголовок : LostFilm 5.1
Язык : Russian
ServiceKind/String : Complete Main
Default : Да
Forced : Нет
Аудио #2
Идентификатор : 3
Формат : AC-3
Формат/Информация : Audio Coding 3
Идентификатор кодека : A_AC3
Продолжительность : 48 м. 4 с.
Вид битрейта : Постоянный
Битрейт : 384 Кбит/сек
Каналы : 6 каналов
Расположение каналов : Front: L C R, Side: L R, LFE
Частота : 48,0 КГц
Частота кадров : 31,250 кадров/сек (1536 SPF)
Битовая глубина : 16 бит
Метод сжатия : С потерями
Размер потока : 132 Мбайт (4%)
Заголовок : NewStudio 5.1
Язык : Russian
ServiceKind/String : Complete Main
Default : Нет
Forced : Нет
Аудио #3
Идентификатор : 4
Формат : AC-3
Формат/Информация : Audio Coding 3
Идентификатор кодека : A_AC3
Продолжительность : 48 м. 4 с.
Вид битрейта : Постоянный
Битрейт : 384 Кбит/сек
Каналы : 6 каналов
Расположение каналов : Front: L C R, Side: L R, LFE
Частота : 48,0 КГц
Частота кадров : 31,250 кадров/сек (1536 SPF)
Битовая глубина : 16 бит
Метод сжатия : С потерями
Размер потока : 132 Мбайт (4%)
Заголовок : IdeaFilm 5.1
Язык : Russian
ServiceKind/String : Complete Main
Default : Нет
Forced : Нет
Аудио #4
Идентификатор : 5
Формат : AC-3
Формат/Информация : Audio Coding 3
Идентификатор кодека : A_AC3
Продолжительность : 48 м. 4 с.
Вид битрейта : Постоянный
Битрейт : 384 Кбит/сек
Каналы : 6 каналов
Расположение каналов : Front: L C R, Side: L R, LFE
Частота : 48,0 КГц
Частота кадров : 31,250 кадров/сек (1536 SPF)
Битовая глубина : 16 бит
Метод сжатия : С потерями
Размер потока : 132 Мбайт (4%)
Заголовок : Jaskier 5.1
Язык : Russian
ServiceKind/String : Complete Main
Default : Нет
Forced : Нет
Аудио #5
Идентификатор : 6
Формат : AC-3
Формат/Информация : Audio Coding 3
Идентификатор кодека : A_AC3
Продолжительность : 48 м. 4 с.
Вид битрейта : Постоянный
Битрейт : 384 Кбит/сек
Каналы : 6 каналов
Расположение каналов : Front: L C R, Side: L R, LFE
Частота : 48,0 КГц
Частота кадров : 31,250 кадров/сек (1536 SPF)
Битовая глубина : 16 бит
Метод сжатия : С потерями
Размер потока : 132 Мбайт (4%)
Заголовок : BaibaKo 5.1
Язык : Russian
ServiceKind/String : Complete Main
Default : Нет
Forced : Нет
Аудио #6
Идентификатор : 7
Формат : AC-3
Формат/Информация : Audio Coding 3
Идентификатор кодека : A_AC3
Продолжительность : 48 м. 4 с.
Вид битрейта : Постоянный
Битрейт : 384 Кбит/сек
Каналы : 6 каналов
Расположение каналов : Front: L C R, Side: L R, LFE
Частота : 48,0 КГц
Частота кадров : 31,250 кадров/сек (1536 SPF)
Битовая глубина : 16 бит
Метод сжатия : С потерями
Размер потока : 132 Мбайт (4%)
Заголовок : original 5.1
Язык : English
ServiceKind/String : Complete Main
Default : Нет
Forced : Нет
Текст #1
Идентификатор : 8
Формат : UTF-8
Идентификатор кодека : S_TEXT/UTF8
Идентификатор кодека/Информация : UTF-8 Plain Text
Заголовок : rus
Язык : Russian
Default : Нет
Forced : Нет
Текст #2
Идентификатор : 9
Формат : UTF-8
Идентификатор кодека : S_TEXT/UTF8
Идентификатор кодека/Информация : UTF-8 Plain Text
Заголовок : CC
Язык : English
Default : Нет
Forced : Нет
Текст #3
Идентификатор : 10
Формат : UTF-8
Идентификатор кодека : S_TEXT/UTF8
Идентификатор кодека/Информация : UTF-8 Plain Text
Заголовок : Fre
Язык : French
Default : Нет
Forced : Нет
Текст #4
Идентификатор : 11
Формат : UTF-8
Идентификатор кодека : S_TEXT/UTF8
Идентификатор кодека/Информация : UTF-8 Plain Text
Заголовок : Ger
Язык : German
Default : Нет
Forced : Нет
Текст #5
Идентификатор : 12
Формат : UTF-8
Идентификатор кодека : S_TEXT/UTF8
Идентификатор кодека/Информация : UTF-8 Plain Text
Заголовок : Spa
Язык : Spanish
Default : Нет
Forced : Нет
[Profile] [PM]
Display posts:    
Reply to topic

Current time is: 24-May 13:07

All times are UTC + 3



You cannot post new topics in this forum
You cannot reply to topics in this forum
You cannot edit your posts in this forum
You cannot delete your posts in this forum
You cannot vote in polls in this forum
You cannot attach files in this forum
You cannot download files in this forum