Неповиновение / Disobedience (2017) BDRip | Лицензия

Reply to topic
 
Author Message

Monk ®

Gender: Male

Longevity: 5 months 11 days

Posts: 5608

Location: Казань

Post 19-Nov-2018 09:09

[Quote]

Неповиновение / Disobedience Год выпуска: 2017
Жанр: Драма, мелодрама
Выпущено: Ирландия, Великобритания, США, Braven Films, Element Pictures, Film 4
Режиссер: Себастьян Лелио
В ролях: Рэйчел МакАдамс, Рэйчел Вайз, Энтон Лессер, Алессандро Нивола, Аллан Кордунер, Николас Вудесон, Дэвид Флишман, Стив Ферст, Тревор Аллан Дейвис, Софиа Браун, Энтони Даудинг
О фильме: Прожив последние годы в Нью-Йорке и впитав его бурные нравы, она была свободна в действии и мятежна духом, однако смерть отца, уважаемого всеми раввина, вынудила Ронит вернуться в родной Хендон и окунуться в привычную жизнь ортодоксального еврейского дома. Встреча с подругой детства, а ныне женой своего кузена, неожиданно заставляет трепетать ее сердце, рождая нежное чувство. Шокирующая новость быстро разлетается по консервативно настроенной еврейской общине…

Качество: BDRip
Видео: XviD, 1962 Кбит/с, 720x304
Аудио: Русский, английский (AC3, 6 ch, 384 Кбит/с)
Продолжительность: 01:54:39
Перевод: Профессиональный многоголосый [Лицензия]
Субтитры: Русские, английские

Скриншоты


MediaInfo

Формат : AVI
Формат/Информация : Audio Video Interleave
Профиль формата : OpenDML
Размер файла : 2,18 Гбайт
Продолжительность : 1 ч. 53 м.
Общий поток : 2737 Кбит/сек
Программа кодирования : VirtualDubMod 1.5.10.2 (build 2542/release)
Библиотека кодирования : VirtualDubMod build 2542/release
Видео
Идентификатор : 0
Формат : MPEG-4 Visual
Профиль формата : Advanced Simple@L5
Настройки формата : BVOP1 / Custom Matrix
Параметр BVOP формата : 1
Параметр QPel формата : Нет
Параметр GMC формата : Без точки перехода
Параметр матрицы формата : Выборочная
Идентификатор кодека : XVID
Идентификатор кодека/Подсказка : XviD
Продолжительность : 1 ч. 53 м.
Битрейт : 1952 Кбит/сек
Ширина : 720 пикселей
Высота : 304 пикселя
Соотношение сторон : 2,35:1
Частота кадров : 23,976 (24000/1001) кадра/сек
Цветовое пространство : YUV
Субдискретизация насыщенности : 4:2:0
Битовая глубина : 8 бит
Тип развёртки : Прогрессивная
Метод сжатия : С потерями
Бит/(Пиксели*Кадры) : 0.372
Размер потока : 1,55 Гбайт (71%)
Библиотека кодирования : XviD 73
Аудио #1
Идентификатор : 1
Формат : AC-3
Формат/Информация : Audio Coding 3
Коммерческое название : Dolby Digital
Идентификатор кодека : 2000
Продолжительность : 1 ч. 53 м.
Вид битрейта : Постоянный
Битрейт : 384 Кбит/сек
Каналы : 6 каналов
Channel layout : L R C LFE Ls Rs
Частота : 48,0 КГц
Частота кадров : 31,250 кадров/сек (1536 SPF)
Битовая глубина : 16 бит
Метод сжатия : С потерями
Размер потока : 313 Мбайт (14%)
Выравнивание : Разделение по промежуткам
Продолжительность промежутка : 42 мс. (1,00 видеокадр)
Время предзагрузки промежутка : 500 мс.
ServiceKind/String : Complete Main
Аудио #2
Идентификатор : 2
Формат : AC-3
Формат/Информация : Audio Coding 3
Коммерческое название : Dolby Digital
Идентификатор кодека : 2000
Продолжительность : 1 ч. 53 м.
Вид битрейта : Постоянный
Битрейт : 384 Кбит/сек
Каналы : 6 каналов
Channel layout : L R C LFE Ls Rs
Частота : 48,0 КГц
Частота кадров : 31,250 кадров/сек (1536 SPF)
Битовая глубина : 16 бит
Метод сжатия : С потерями
Размер потока : 313 Мбайт (14%)
Выравнивание : Разделение по промежуткам
Продолжительность промежутка : 42 мс. (1,00 видеокадр)
Время предзагрузки промежутка : 500 мс.
ServiceKind/String : Complete Main
[Profile] [PM]
Display posts:    
Reply to topic

Current time is: 25-Apr 17:52

All times are UTC + 3



You cannot post new topics in this forum
You cannot reply to topics in this forum
You cannot edit your posts in this forum
You cannot delete your posts in this forum
You cannot vote in polls in this forum
You cannot attach files in this forum
You cannot download files in this forum