Неповиновение / Disobedience (2017) BDRip 1080p | Лицензия

Ответить на тему
 
Автор Сообщение

Monk ®

Пол: Мужской

Стаж: 3 месяца 2 дня

Сообщений: 3233

Откуда: Казань

Создавать темы 19-Ноя-2018 09:15

[Цитировать]

Неповиновение / Disobedience Год выпуска: 2017
Жанр: Драма, мелодрама
Выпущено: Ирландия, Великобритания, США, Braven Films, Element Pictures, Film 4
Режиссер: Себастьян Лелио
В ролях: Рэйчел МакАдамс, Рэйчел Вайз, Энтон Лессер, Алессандро Нивола, Аллан Кордунер, Николас Вудесон, Дэвид Флишман, Стив Ферст, Тревор Аллан Дейвис, Софиа Браун, Энтони Даудинг
О фильме: Прожив последние годы в Нью-Йорке и впитав его бурные нравы, она была свободна в действии и мятежна духом, однако смерть отца, уважаемого всеми раввина, вынудила Ронит вернуться в родной Хендон и окунуться в привычную жизнь ортодоксального еврейского дома. Встреча с подругой детства, а ныне женой своего кузена, неожиданно заставляет трепетать ее сердце, рождая нежное чувство. Шокирующая новость быстро разлетается по консервативно настроенной еврейской общине…

Качество: BDRip 1080p
Видео: MPEG-4 AVC, 13100 Kбит/с, 1920x804, 23.976 Кадр/c
Аудио: Русский (AC3, 6 ch, 640 Кбит/с), английский (DTS, 6 ch, ~ 1510 Кбит/с)
Продолжительность: 1:54:39
Перевод: Профессиональный многоголосый [Лицензия]
Субтитры: Русские, английские

Скриншоты



MediaInfo

General
Unique ID : 138358648249874181345710512234173005997 (0x6816E8080E8BD0D78441FA331D5780AD)
Complete name : F:\Видосики\Disobedience.2017,bdriP.1080p.werecut.PROD.mkv
Format : Matroska
Format version : Version 4 / Version 2
File size : 12.2 GiB
Duration : 1 h 54 min
Overall bit rate : 15.2 Mb/s
Movie name : Disobedience 2017 OT werecut PROD.
Encoded date : UTC 2018-09-05 23:30:37
Writing application : mkvmerge v24.0.0 ('Beyond The Pale') 64-bit
Writing library : libebml v1.3.6 + libmatroska v1.4.9
Video
ID : 1
Format : AVC
Format/Info : Advanced Video Codec
Format profile : High@L4.1
Format settings : CABAC / 5 Ref Frames
Format settings, CABAC : Yes
Format settings, ReFrames : 5 frames
Codec ID : V_MPEG4/ISO/AVC
Duration : 1 h 54 min
Bit rate : 13.1 Mb/s
Width : 1 920 pixels
Height : 804 pixels
Display aspect ratio : 2.40:1
Frame rate mode : Constant
Frame rate : 23.976 (24000/1001) FPS
Color space : YUV
Chroma subsampling : 4:2:0
Bit depth : 8 bits
Scan type : Progressive
Bits/(Pixel*Frame) : 0.354
Stream size : 10.5 GiB (86%)
Writing library : x264 core 150 r2833+21 82447f2 VietHD_Custom
Encoding settings : cabac=1 / ref=5 / deblock=1:-3:-3 / analyse=0x3:0x133 / me=umh / subme=10 / psy=1 / fade_compensate=0.00 / psy_rd=1.05:0.00 / mixed_ref=1 / me_range=24 / chroma_me=1 / trellis=2 / 8x8dct=1 / cqm=0 / deadzone=21,11 / fast_pskip=0 / chroma_qp_offset=-2 / threads=12 / lookahead_threads=2 / sliced_threads=0 / nr=0 / decimate=0 / interlaced=0 / bluray_compat=0 / constrained_intra=0 / fgo=0 / bframes=7 / b_pyramid=2 / b_adapt=2 / b_bias=0 / direct=3 / weightb=1 / open_gop=0 / weightp=2 / keyint=250 / keyint_min=23 / scenecut=40 / intra_refresh=0 / rc_lookahead=60 / rc=crf / mbtree=0 / crf=16.7000 / qcomp=0.65 / qpmin=0:0:0 / qpmax=69:69:69 / qpstep=4 / vbv_maxrate=62500 / vbv_bufsize=78125 / crf_max=0.0 / nal_hrd=none / filler=0 / ip_ratio=1.30 / pb_ratio=1.20 / aq=3:0.75 / aq-sensitivity=10.00 / aq-factor=1.00:1.00:1.00 / aq2=0 / aq3=0 / zones=0,1683,crf=12.7
Language : English
Default : Yes
Forced : No
Color range : Limited
Matrix coefficients : BT.709
Audio #1
ID : 2
Format : AC-3
Format/Info : Audio Coding 3
Commercial name : Dolby Digital
Codec ID : A_AC3
Duration : 1 h 54 min
Bit rate mode : Constant
Bit rate : 640 kb/s
Channel(s) : 6 channels
Channel layout : L R C LFE Ls Rs
Sampling rate : 48.0 kHz
Frame rate : 31.250 FPS (1536 SPF)
Bit depth : 16 bits
Compression mode : Lossy
Stream size : 525 MiB (4%)
Language : Russian
Service kind : Complete Main
Default : Yes
Forced : Yes
Audio #2
ID : 3
Format : DTS
Format/Info : Digital Theater Systems
Codec ID : A_DTS
Duration : 1 h 54 min
Bit rate mode : Constant
Bit rate : 1 509 kb/s
Channel(s) : 6 channels
Channel layout : C L R Ls Rs LFE
Sampling rate : 48.0 kHz
Frame rate : 93.750 FPS (512 SPF)
Bit depth : 24 bits
Compression mode : Lossy
Stream size : 1.21 GiB (10%)
Language : English
Default : No
Forced : No
Text #1
ID : 4
Format : UTF-8
Codec ID : S_TEXT/UTF8
Codec ID/Info : UTF-8 Plain Text
Duration : 1 h 53 min
Bit rate : 36 b/s
Count of elements : 842
Stream size : 29.8 KiB (0%)
Language : Russian
Default : No
Forced : No
Text #2
ID : 5
Format : UTF-8
Codec ID : S_TEXT/UTF8
Codec ID/Info : UTF-8 Plain Text
Duration : 1 h 47 min
Bit rate : 28 b/s
Count of elements : 884
Stream size : 22.2 KiB (0%)
Language : English
Default : No
Forced : No
Text #3
ID : 6
Format : UTF-8
Codec ID : S_TEXT/UTF8
Codec ID/Info : UTF-8 Plain Text
Duration : 1 h 51 min
Bit rate : 31 b/s
Count of elements : 1053
Stream size : 26.0 KiB (0%)
Title : SDH
Language : English
Default : No
Forced : No
Menu
00:00:00.000 : en:00:00:00.000
00:03:43.014 : en:00:03:43.014
00:09:09.591 : en:00:09:09.591
00:16:38.998 : en:00:16:38.998
00:21:25.618 : en:00:21:25.618
00:25:31.655 : en:00:25:31.655
00:28:41.303 : en:00:28:41.303
00:36:43.785 : en:00:36:43.785
00:41:19.894 : en:00:41:19.894
00:50:03.375 : en:00:50:03.375
00:57:51.093 : en:00:57:51.093
01:02:46.179 : en:01:02:46.179
01:10:34.230 : en:01:10:34.230
01:17:28.727 : en:01:17:28.727
01:20:28.949 : en:01:20:28.949
01:25:35.339 : en:01:25:35.339
01:31:59.472 : en:01:31:59.472
01:37:21.711 : en:01:37:21.711
01:44:02.820 : en:01:44:02.820
01:49:47.247 : en:01:49:47.247
[Профиль] [ЛС]
Показать сообщения:    
Ответить на тему

Текущее время: 16-Фев 21:31

Часовой пояс: UTC + 3



Вы не можете начинать темы
Вы не можете отвечать на сообщения
Вы не можете редактировать свои сообщения
Вы не можете удалять свои сообщения
Вы не можете голосовать в опросах
Вы не можете прикреплять файлы к сообщениям
Вы не можете скачивать файлы