Неповиновение / Disobedience (2017) BDRip AVC | Лицензия

Ответить на тему
 
Автор Сообщение

Monk ®

Пол: Мужской

Стаж: 3 месяца 1 день

Сообщений: 3233

Откуда: Казань

Создавать темы 19-Ноя-2018 09:16

[Цитировать]

Неповиновение / Disobedience Год выпуска: 2017
Жанр: Драма, мелодрама
Выпущено: Ирландия, Великобритания, США, Braven Films, Element Pictures, Film 4
Режиссер: Себастьян Лелио
В ролях: Рэйчел МакАдамс, Рэйчел Вайз, Энтон Лессер, Алессандро Нивола, Аллан Кордунер, Николас Вудесон, Дэвид Флишман, Стив Ферст, Тревор Аллан Дейвис, Софиа Браун, Энтони Даудинг
О фильме: Прожив последние годы в Нью-Йорке и впитав его бурные нравы, она была свободна в действии и мятежна духом, однако смерть отца, уважаемого всеми раввина, вынудила Ронит вернуться в родной Хендон и окунуться в привычную жизнь ортодоксального еврейского дома. Встреча с подругой детства, а ныне женой своего кузена, неожиданно заставляет трепетать ее сердце, рождая нежное чувство. Шокирующая новость быстро разлетается по консервативно настроенной еврейской общине…

Качество: BDRip AVC
Видео: MPEG-4 AVC, 915 Kбит/с, 1024x428
Аудио: Русский (AC3, 6 ch, 448 Кбит/с), (AC3, 2 ch, 192 Кбит/с), английский (AC3, 6 ch, 448 Кбит/с)
Продолжительность: 01:54:40
Перевод: Профессиональный многоголосый [Лицензия]
Субтитры: Русские, английские

Скриншоты



MediaInfo

Общее
Уникальный идентификатор : 175753519637074916966782348991688209996 (0x8438E5898C023540EA81D6AD15CDF64C)
Полное имя : D:\Disobedience.2017.BDRip(AVC).OlLanDGroup.mkv
Формат : Matroska
Версия формата : Version 4 / Version 2
Размер файла : 1,61 Гбайт
Продолжительность : 1 ч. 54 м.
Общий поток : 2005 Кбит/сек
Название фильма : Disobedience.2017 #TorpedoUK#
Дата кодирования : UTC 2018-09-06 00:27:00
Программа кодирования : mkvmerge v25.0.0 ('Prog Noir') 64-bit
Библиотека кодирования : libebml v1.3.6 + libmatroska v1.4.9
Видео
Идентификатор : 1
Формат : AVC
Формат/Информация : Advanced Video Codec
Профиль формата : High@L4.1
Настройки формата : CABAC / 10 Ref Frames
Параметр CABAC формата : Да
Параметр RefFrames формата : 10 кадров
Идентификатор кодека : V_MPEG4/ISO/AVC
Продолжительность : 1 ч. 54 м.
Битрейт : 915 Кбит/сек
Ширина : 1024 пикселя
Высота : 428 пикселей
Соотношение сторон : 2,40:1
Режим частоты кадров : Постоянный
Частота кадров : 23,976 (24000/1001) кадра/сек
Цветовое пространство : YUV
Субдискретизация насыщенности : 4:2:0
Битовая глубина : 8 бит
Тип развёртки : Прогрессивная
Бит/(Пиксели*Кадры) : 0.087
Размер потока : 719 Мбайт (44%)
Библиотека кодирования : x264 core 146 r2538 121396c
Настройки программы : cabac=1 / ref=10 / deblock=1:-3:-3 / analyse=0x3:0x113 / me=umh / subme=11 / psy=1 / psy_rd=1.00:0.03 / mixed_ref=1 / me_range=48 / chroma_me=1 / trellis=2 / 8x8dct=1 / cqm=0 / deadzone=21,11 / fast_pskip=1 / chroma_qp_offset=-3 / threads=6 / lookahead_threads=1 / sliced_threads=0 / nr=0 / decimate=1 / interlaced=0 / bluray_compat=0 / constrained_intra=0 / bframes=10 / b_pyramid=2 / b_adapt=2 / b_bias=0 / direct=3 / weightb=1 / open_gop=0 / weightp=2 / keyint=240 / keyint_min=23 / scenecut=40 / intra_refresh=0 / rc_lookahead=40 / rc=2pass / mbtree=1 / bitrate=915 / ratetol=1.0 / qcomp=0.60 / qpmin=0 / qpmax=69 / qpstep=4 / cplxblur=20.0 / qblur=0.5 / vbv_maxrate=50000 / vbv_bufsize=62500 / nal_hrd=none / filler=0 / ip_ratio=1.40 / aq=1:1.00
Язык : English
Default : Да
Forced : Нет
Аудио #1
Идентификатор : 2
Формат : AC-3
Формат/Информация : Audio Coding 3
Идентификатор кодека : A_AC3
Продолжительность : 1 ч. 54 м.
Вид битрейта : Постоянный
Битрейт : 448 Кбит/сек
Каналы : 6 каналов
Расположение каналов : Front: L C R, Side: L R, LFE
Частота : 48,0 КГц
Частота кадров : 31,250 кадров/сек (1536 SPF)
Битовая глубина : 16 бит
Метод сжатия : С потерями
Размер потока : 367 Мбайт (22%)
Заголовок : [License]
Язык : Russian
ServiceKind/String : Complete Main
Default : Да
Forced : Нет
Аудио #2
Идентификатор : 3
Формат : AC-3
Формат/Информация : Audio Coding 3
Идентификатор кодека : A_AC3
Продолжительность : 1 ч. 54 м.
Вид битрейта : Постоянный
Битрейт : 192 Кбит/сек
Каналы : 2 канала
Расположение каналов : Front: L R
Частота : 48,0 КГц
Частота кадров : 31,250 кадров/сек (1536 SPF)
Битовая глубина : 16 бит
Метод сжатия : С потерями
Размер потока : 157 Мбайт (10%)
Заголовок : MVO [HDRezka Studio]
Язык : Russian
ServiceKind/String : Complete Main
Default : Нет
Forced : Нет
Аудио #3
Идентификатор : 4
Формат : AC-3
Формат/Информация : Audio Coding 3
Идентификатор кодека : A_AC3
Продолжительность : 1 ч. 54 м.
Вид битрейта : Постоянный
Битрейт : 448 Кбит/сек
Каналы : 6 каналов
Расположение каналов : Front: L C R, Side: L R, LFE
Частота : 48,0 КГц
Частота кадров : 31,250 кадров/сек (1536 SPF)
Битовая глубина : 16 бит
Метод сжатия : С потерями
Размер потока : 367 Мбайт (22%)
Заголовок : Original
Язык : English
ServiceKind/String : Complete Main
Default : Нет
Forced : Нет
Текст #1
Идентификатор : 5
Формат : UTF-8
Идентификатор кодека : S_TEXT/UTF8
Идентификатор кодека/Информация : UTF-8 Plain Text
Заголовок : Full
Язык : Russian
Default : Нет
Forced : Нет
Текст #2
Идентификатор : 6
Формат : UTF-8
Идентификатор кодека : S_TEXT/UTF8
Идентификатор кодека/Информация : UTF-8 Plain Text
Заголовок : Full
Язык : English
Default : Нет
Forced : Нет
Текст #3
Идентификатор : 7
Формат : UTF-8
Идентификатор кодека : S_TEXT/UTF8
Идентификатор кодека/Информация : UTF-8 Plain Text
Заголовок : SDH
Язык : English
Default : Нет
Forced : Нет
Меню
00:00:00.000 : en:Chapter 01
00:03:43.014 : en:Chapter 02
00:09:09.590 : en:Chapter 03
00:16:38.998 : en:Chapter 04
00:21:25.617 : en:Chapter 05
00:25:31.655 : en:Chapter 06
00:28:41.302 : en:Chapter 07
00:36:43.784 : en:Chapter 08
00:41:19.894 : en:Chapter 09
00:50:03.375 : en:Chapter 10
00:57:51.092 : en:Chapter 11
01:02:46.179 : en:Chapter 12
01:10:34.230 : en:Chapter 13
01:17:28.727 : en:Chapter 14
01:20:28.949 : en:Chapter 15
01:25:35.338 : en:Chapter 16
01:31:59.472 : en:Chapter 17
01:37:21.710 : en:Chapter 18
01:44:02.819 : en:Chapter 19
01:49:47.247 : en:Chapter 20
01:54:39.455 : en:Chapter 21
[Профиль] [ЛС]
Показать сообщения:    
Ответить на тему

Текущее время: 16-Фев 11:16

Часовой пояс: UTC + 3



Вы не можете начинать темы
Вы не можете отвечать на сообщения
Вы не можете редактировать свои сообщения
Вы не можете удалять свои сообщения
Вы не можете голосовать в опросах
Вы не можете прикреплять файлы к сообщениям
Вы не можете скачивать файлы