Неповиновение / Disobedience (2017) BDRip 720p | Лицензия

Reply to topic
 
Author Message

Monk ®

Gender: Male

Longevity: 1 year

Posts: 9115

Location: Казань

Post 19-Nov-2018 09:13

[Quote]

Неповиновение / Disobedience Год выпуска: 2017
Жанр: Драма, мелодрама
Выпущено: Ирландия, Великобритания, США, Braven Films, Element Pictures, Film 4
Режиссер: Себастьян Лелио
В ролях: Рэйчел МакАдамс, Рэйчел Вайз, Энтон Лессер, Алессандро Нивола, Аллан Кордунер, Николас Вудесон, Дэвид Флишман, Стив Ферст, Тревор Аллан Дейвис, Софиа Браун, Энтони Даудинг
О фильме: Прожив последние годы в Нью-Йорке и впитав его бурные нравы, она была свободна в действии и мятежна духом, однако смерть отца, уважаемого всеми раввина, вынудила Ронит вернуться в родной Хендон и окунуться в привычную жизнь ортодоксального еврейского дома. Встреча с подругой детства, а ныне женой своего кузена, неожиданно заставляет трепетать ее сердце, рождая нежное чувство. Шокирующая новость быстро разлетается по консервативно настроенной еврейской общине…

Качество: BDRip 720p
Видео: MPEG-4 AVC, 5939 Kбит/с, 1280x536, 23.976 Кадр/c
Аудио: Русский, английский (AC3, 6 ch, 640 Кбит/с)
Продолжительность: 1:54:39
Перевод: Профессиональный многоголосый [Лицензия]
Субтитры: Русские, английские

Скриншоты



MediaInfo

General
Unique ID : 163109911457832649910353982295646214328 (0x7AB5D38673481E5E6EE036554DDD18B8)
Complete name : F:\Видосики\Disobedience.2017.bdriP.72Op.werecut.PROD.mkv
Format : Matroska
Format version : Version 4 / Version 2
File size : 5.78 GiB
Duration : 1 h 54 min
Overall bit rate : 7 221 kb/s
Movie name : Disobedience 2017 OT werecut PROD.
Encoded date : UTC 2018-09-05 23:36:05
Writing application : mkvmerge v24.0.0 ('Beyond The Pale') 64-bit
Writing library : libebml v1.3.6 + libmatroska v1.4.9
Video
ID : 1
Format : AVC
Format/Info : Advanced Video Codec
Format profile : High@L4.1
Format settings : CABAC / 12 Ref Frames
Format settings, CABAC : Yes
Format settings, ReFrames : 12 frames
Codec ID : V_MPEG4/ISO/AVC
Duration : 1 h 54 min
Bit rate : 5 939 kb/s
Width : 1 280 pixels
Height : 536 pixels
Display aspect ratio : 2.40:1
Frame rate mode : Constant
Frame rate : 23.976 (24000/1001) FPS
Color space : YUV
Chroma subsampling : 4:2:0
Bit depth : 8 bits
Scan type : Progressive
Bits/(Pixel*Frame) : 0.361
Stream size : 4.76 GiB (82%)
Writing library : x264 core 155 r2901 7d0ff22
Encoding settings : cabac=1 / ref=12 / deblock=1:-3:-3 / analyse=0x3:0x133 / me=umh / subme=10 / psy=1 / psy_rd=1.00:0.00 / mixed_ref=1 / me_range=32 / chroma_me=1 / trellis=2 / 8x8dct=1 / cqm=0 / deadzone=21,11 / fast_pskip=0 / chroma_qp_offset=-2 / threads=12 / lookahead_threads=2 / sliced_threads=0 / nr=0 / decimate=0 / interlaced=0 / bluray_compat=0 / constrained_intra=0 / bframes=9 / b_pyramid=2 / b_adapt=2 / b_bias=0 / direct=3 / weightb=1 / open_gop=0 / weightp=2 / keyint=250 / keyint_min=23 / scenecut=40 / intra_refresh=0 / rc_lookahead=40 / rc=crf / mbtree=0 / crf=16.3 / qcomp=0.70 / qpmin=0 / qpmax=69 / qpstep=4 / vbv_maxrate=50000 / vbv_bufsize=62500 / crf_max=0.0 / nal_hrd=none / filler=0 / ip_ratio=1.30 / pb_ratio=1.20 / aq=3:0.80 / zones=2190,5156,crf=15.7/5525,10553,crf=15.7/13177,14123,crf=15.7/16067,16410,crf=15.7/25701,30823,crf=15.7/30824,32405,crf=15.7/33548,33596,crf=15.7/33771,34029,crf=15.7/36896,37739,crf=15.7/39868,52837,crf=15.7/53128,56435,crf=15.7/60279,72008,crf=15.7/77079,77508,crf=15.7/77961,83598,crf=15.7/90298,91451,crf=15.7/93307,114013,crf=15.7/114688,115778,crf=15.7/116490,121135,crf=15.7/121768,123124,crf=15.7/125871,155502,crf=15.7
Language : English
Default : Yes
Forced : No
Color range : Limited
Color primaries : BT.709
Transfer characteristics : BT.709
Matrix coefficients : BT.709
Audio #1
ID : 2
Format : AC-3
Format/Info : Audio Coding 3
Commercial name : Dolby Digital
Codec ID : A_AC3
Duration : 1 h 54 min
Bit rate mode : Constant
Bit rate : 640 kb/s
Channel(s) : 6 channels
Channel layout : L R C LFE Ls Rs
Sampling rate : 48.0 kHz
Frame rate : 31.250 FPS (1536 SPF)
Bit depth : 16 bits
Compression mode : Lossy
Stream size : 525 MiB (9%)
Language : Russian
Service kind : Complete Main
Default : Yes
Forced : Yes
Audio #2
ID : 3
Format : AC-3
Format/Info : Audio Coding 3
Commercial name : Dolby Digital
Codec ID : A_AC3
Duration : 1 h 54 min
Bit rate mode : Constant
Bit rate : 640 kb/s
Channel(s) : 6 channels
Channel layout : L R C LFE Ls Rs
Sampling rate : 48.0 kHz
Frame rate : 31.250 FPS (1536 SPF)
Bit depth : 16 bits
Compression mode : Lossy
Stream size : 525 MiB (9%)
Language : English
Service kind : Complete Main
Default : No
Forced : No
Text #1
ID : 4
Format : UTF-8
Codec ID : S_TEXT/UTF8
Codec ID/Info : UTF-8 Plain Text
Duration : 1 h 53 min
Bit rate : 36 b/s
Count of elements : 842
Stream size : 29.8 KiB (0%)
Language : Russian
Default : No
Forced : No
Text #2
ID : 5
Format : UTF-8
Codec ID : S_TEXT/UTF8
Codec ID/Info : UTF-8 Plain Text
Duration : 1 h 47 min
Bit rate : 28 b/s
Count of elements : 884
Stream size : 22.2 KiB (0%)
Language : English
Default : No
Forced : No
Text #3
ID : 6
Format : UTF-8
Codec ID : S_TEXT/UTF8
Codec ID/Info : UTF-8 Plain Text
Duration : 1 h 51 min
Bit rate : 31 b/s
Count of elements : 1053
Stream size : 26.0 KiB (0%)
Title : SDH
Language : English
Default : No
Forced : No
Menu
00:00:00.000 : en:00:00:00.000
00:03:43.014 : en:00:03:43.014
00:09:09.591 : en:00:09:09.591
00:16:38.998 : en:00:16:38.998
00:21:25.618 : en:00:21:25.618
00:25:31.655 : en:00:25:31.655
00:28:41.303 : en:00:28:41.303
00:36:43.785 : en:00:36:43.785
00:41:19.894 : en:00:41:19.894
00:50:03.375 : en:00:50:03.375
00:57:51.093 : en:00:57:51.093
01:02:46.179 : en:01:02:46.179
01:10:34.230 : en:01:10:34.230
01:17:28.727 : en:01:17:28.727
01:20:28.949 : en:01:20:28.949
01:25:35.339 : en:01:25:35.339
01:31:59.472 : en:01:31:59.472
01:37:21.711 : en:01:37:21.711
01:44:02.820 : en:01:44:02.820
01:49:47.247 : en:01:49:47.247
[Profile] [PM]
Display posts:    
Reply to topic

Current time is: 22-Nov 11:52

All times are UTC + 3



You cannot post new topics in this forum
You cannot reply to topics in this forum
You cannot edit your posts in this forum
You cannot delete your posts in this forum
You cannot vote in polls in this forum
You cannot attach files in this forum
You cannot download files in this forum