Улица [1 сезон: 1-79 серии из 79] (2017) WEBRip от Files-x

Reply to topic
 
Author Message

Nicodem ®

Gender: Male

Longevity: 7 months 1 day

Posts: 178

Post 23-Nov-2018 14:11

[Quote]

Улица
Год выпуска: 2017
Жанр: Драма, комедия, мелодрама, триллер
Выпущено: Россия, ГудСториМедиа
Режиссер: Жанна Кадникова, Николай Бурлак, Михаил Соловьёв (II)
В ролях: Егор Клинаев, Лёля Баранова, Владимир Хацкевич, Екатерина Седик, Павел Савинков, Сергей Змичеревский, Артемий Падалка, Марина Богатова, Ксения Жданова, Марта Дромашко, Александр Терехов, Софья Реснянская, Анна Клинская, Василиса Немцова, Кристина Александрова, Евгения Туркова, Евгения Короткевич, Пётр Романов, Никита Лобанов, Евгений Шевченко (II), Артур Бичакиан, Джамболат Сланов, Светлана Саягова, Алёна Котова, Ольга Балль, Максим Михалёв, Валерий Романов, Марина Антонова, Евдокия Лаврухина, Дарья Баскакова-Левина, Даниил Добринский, Татьяна Митиенко, Кирилл Анохин, Юрий Николаенко, Сергей Долготович, Дарья Макарова, Татьяна Ивановская, Руслан Сабиров (II), Алёна Ан, Кирилл Снегирёв, Александр Обласов, Виктор Татаринов, Екатерина Хомчук, Денис Фомин, Никита Подскопный, Полина Канева, Татьяна Дорофеева, Анна Махлина, Максим Калужских, Дамир Янов, Пелагея Невзорова, Кристина Кузьмина, Наталья Попова, Вадим Ракитин, Алексей Савченко, Степан Бекетов, Дэни Аласания, Михаил Кремер, Яна Аршавская, Андрей Булатов, Алина Хруник, Екатерина Бабочкина, Александр Загоскин (II), Валерия Дергилёва, Леонид Ардо, Виталий Щербина, Анастасия Шаповалова
О фильме: «Улица» — это история жителей одной из улиц спального района большого города. Школьники и студенты, домохозяйки и продавцы, олигархи и простые рабочие — здесь встретятся более 30 персонажей разного возраста и социального статуса, у каждого из них своя история. В большой Вселенной «Улицы» нет главных и второстепенных героев, здесь есть бурная жизнь с ее радостями, горестями, казусами и косяками, страхами, любовными переживаниями и трагедиями. Это история про всех нас и наших соседей.

Качество: WEBRip
Видео: XviD, ~ 1559 Кбит/с, 720x400, 25 кадр/с
Аудио: AC3, 2 ch, 192 Кбит/с
Продолжительность: 79 х ~ 00:23:00
Перевод: Не требуется
Cубтитры: нет

Скриншоты


MediaInfo

General
Complete name : C:\Users\DOM\Downloads\Ulica.2017.WEB-DLRip.Files-x\01.Ulica.2017.WEB-DLRip.Files-x.avi
Format : AVI
Format/Info : Audio Video Interleave
File size : 348 MiB
Duration : 27mn 35s
Overall bit rate : 1 761 Kbps
Writing application : VirtualDubMod 1.5.10.3 | www.virtualdub-fr.org || (build 2550/release)
Writing library : VirtualDubMod build 2550/release
Video
ID : 0
Format : MPEG-4 Visual
Format profile : Advanced Simple@L5
Format settings, BVOP : 1
Format settings, QPel : No
Format settings, GMC : No warppoints
Format settings, Matrix : Custom
Codec ID : XVID
Codec ID/Hint : XviD
Duration : 27mn 35s
Bit rate : 1 559 Kbps
Width : 720 pixels
Height : 400 pixels
Display aspect ratio : 16:9
Frame rate : 25.000 fps
Color space : YUV
Chroma subsampling : 4:2:0
Bit depth : 8 bits
Scan type : Progressive
Compression mode : Lossy
Bits/(Pixel*Frame) : 0.217
Stream size : 308 MiB (89%)
Writing library : XviD 73
Audio
ID : 1
Format : AC-3
Format/Info : Audio Coding 3
Mode extension : CM (complete main)
Codec ID : 2000
Duration : 27mn 35s
Bit rate mode : Constant
Bit rate : 192 Kbps
Channel(s) : 2 channels
Channel positions : Front: L R
Sampling rate : 48.0 KHz
Bit depth : 16 bits
Compression mode : Lossy
Stream size : 37.9 MiB (11%)
Alignment : Split accross interleaves
Interleave, duration : 40 ms (1.00 video frame)
Interleave, preload duration : 500 ms
Релиз от:
[Profile] [PM]
Display posts:    
Reply to topic

Current time is: 19-Jun 11:02

All times are UTC + 3



You cannot post new topics in this forum
You cannot reply to topics in this forum
You cannot edit your posts in this forum
You cannot delete your posts in this forum
You cannot vote in polls in this forum
You cannot attach files in this forum
You cannot download files in this forum