Улица [2 сезон: 1-34 серии из 34] (2018) WEBRip 720p от Files-x

Reply to topic
 
Author Message

Nicodem ®

Gender: Male

Longevity: 11 months 3 days

Posts: 255

Post 23-Nov-2018 15:14

[Quote]

Улица
Год выпуска: 2018
Жанр: Драма, комедия, мелодрама, триллер
Выпущено: Россия, ГудСториМедиа
Режиссер: Жанна Кадникова, Николай Бурлак, Михаил Соловьёв (II)
В ролях: Лёля Баранова, Владимир Хацкевич, Екатерина Седик, Павел Савинков, Сергей Змичеревский, Артемий Падалка, Марина Богатова, Ксения Жданова, Марта Дромашко, Александр Терехов, Софья Реснянская, Анна Клинская, Василиса Немцова, Кристина Александрова, Евгения Туркова, Евгения Короткевич, Пётр Романов, Никита Лобанов, Евгений Шевченко (II), Артур Бичакиан, Джамболат Сланов, Светлана Саягова, Алёна Котова, Ольга Балль, Максим Михалёв, Валерий Романов, Марина Антонова, Евдокия Лаврухина, Дарья Баскакова-Левина, Даниил Добринский, Татьяна Митиенко, Кирилл Анохин, Юрий Николаенко, Сергей Долготович, Дарья Макарова, Татьяна Ивановская, Руслан Сабиров (II), Алёна Ан, Кирилл Снегирёв, Александр Обласов, Виктор Татаринов, Екатерина Хомчук, Денис Фомин, Никита Подскопный, Полина Канева, Татьяна Дорофеева, Анна Махлина, Максим Калужских, Дамир Янов, Пелагея Невзорова, Кристина Кузьмина, Наталья Попова, Вадим Ракитин, Алексей Савченко, Степан Бекетов, Дэни Аласания, Михаил Кремер, Яна Аршавская, Андрей Булатов, Алина Хруник, Екатерина Бабочкина, Александр Загоскин (II), Валерия Дергилёва, Леонид Ардо, Виталий Щербина, Анастасия Шаповалова
О фильме: «В новом сезоне мы немного поменяем тональность сериала, сделаем его чуть более легким и игровым, добавим авантюрной комедии. Но драматичные и лиричные моменты, которые так полюбились зрителю, мы, конечно, оставим. Кроме этого, на «Улице» появятся новые герои, которые смогут посмотреть на события свежим взглядом. А за старых героев зрителям придется здорово переживать». Self-made person, консультант в сфере искусства Алиса, добрый юный мажор Рома и честный полицейский Артем присоединятся к уже хорошо знакомым зрителю «соседям». Как герои вольются в семью, и какая жизнь ждет их на «Улице»? Это телеистория жителей одной из улиц спального района большого города. Школьники и студенты, домохозяйки и продавцы, олигархи и простые рабочие — здесь встретятся более 30 персонажей разного возраста и социального статуса, у каждого из них своя история. История про всех нас и наших соседей.

Качество: WEBRip 720p
Видео: MPEG-4 AVC, ~ 3500 Кбит/с, 1280x720, 25 кадр/с
Аудио: AC3, 2 ch, 192 Кбит/с
Продолжительность: 34 x ~ 00:25:00
Перевод: Не требуется
Cубтитры: нет

Скриншоты


MediaInfo

General
Unique ID : 182560973357384785346424405468201577666 (0x8957F6EB36368317B4254D0C82AB6CC2)
Complete name : C:\Users\DOM\Downloads\Ulica.S.02.2018.WEB-DL(720p).Files-x\01. Ulica.S.02.(2018).WEB-DL (720p).Files-x.mkv
Format : Matroska
File size : 634 MiB
Duration : 23mn 39s
Overall bit rate : 3 750 Kbps
Encoded date : UTC 2018-04-09 17:35:11
Writing application : mkvmerge v7.8.0 ('River Man') 32bit built on Apr 3 2015 12:11:22
Writing library : libebml v1.3.1 + libmatroska v1.4.2
Video
ID : 1
Format : AVC
Format/Info : Advanced Video Codec
Format profile : High@L3.1
Format settings, CABAC : Yes
Format settings, ReFrames : 1 frame
Codec ID : V_MPEG4/ISO/AVC
Duration : 23mn 39s
Bit rate : 3 484 Kbps
Width : 1 280 pixels
Height : 720 pixels
Display aspect ratio : 16:9
Frame rate : 25.000 fps
Standard : Component
Color space : YUV
Chroma subsampling : 4:2:0
Bit depth : 8 bits
Scan type : Progressive
Bits/(Pixel*Frame) : 0.151
Stream size : 589 MiB (93%)
Audio
ID : 2
Format : AC-3
Format/Info : Audio Coding 3
Mode extension : CM (complete main)
Codec ID : A_AC3
Duration : 23mn 39s
Bit rate mode : Constant
Bit rate : 192 Kbps
Channel(s) : 2 channels
Channel positions : Front: L R
Sampling rate : 44.1 KHz
Bit depth : 16 bits
Compression mode : Lossy
Delay relative to video : 17ms
Stream size : 32.5 MiB (5%)
Релиз от:
[Profile] [PM]
Display posts:    
Reply to topic

Current time is: 20-Oct 18:33

All times are UTC + 3



You cannot post new topics in this forum
You cannot reply to topics in this forum
You cannot edit your posts in this forum
You cannot delete your posts in this forum
You cannot vote in polls in this forum
You cannot attach files in this forum
You cannot download files in this forum