Улица [3 сезон: 1-66 серии из 66] (2018) WEBRip

Reply to topic
 
Author Message

Nicodem ®

Gender: Male

Longevity: 10 months 1 day

Posts: 223

Post 23-Nov-2018 16:04

[Quote]

Улица
Год выпуска: 2018
Жанр: Драма, комедия, мелодрама, триллер
Выпущено: Россия, ГудСториМедиа
Режиссер: Жанна Кадникова, Николай Бурлак, Михаил Соловьёв (II)
В ролях: Лёля Баранова, Владимир Хацкевич, Екатерина Седик, Павел Савинков, Сергей Змичеревский, Артемий Падалка, Марина Богатова, Ксения Жданова, Марта Дромашко, Александр Терехов, Софья Реснянская, Анна Клинская, Василиса Немцова, Кристина Александрова, Евгения Туркова, Евгения Короткевич, Пётр Романов, Никита Лобанов, Евгений Шевченко (II), Артур Бичакиан, Джамболат Сланов, Светлана Саягова, Алёна Котова, Ольга Балль, Максим Михалёв, Валерий Романов, Марина Антонова, Евдокия Лаврухина, Дарья Баскакова-Левина, Даниил Добринский, Татьяна Митиенко, Кирилл Анохин, Юрий Николаенко, Сергей Долготович, Дарья Макарова, Татьяна Ивановская, Руслан Сабиров (II), Алёна Ан, Кирилл Снегирёв, Александр Обласов, Виктор Татаринов, Екатерина Хомчук, Денис Фомин, Никита Подскопный, Полина Канева, Татьяна Дорофеева, Анна Махлина, Максим Калужских, Дамир Янов, Пелагея Невзорова, Кристина Кузьмина, Наталья Попова, Вадим Ракитин, Алексей Савченко, Степан Бекетов, Дэни Аласания, Михаил Кремер, Яна Аршавская, Андрей Булатов, Алина Хруник, Екатерина Бабочкина, Александр Загоскин (II), Валерия Дергилёва, Леонид Ардо, Виталий Щербина, Анастасия Шаповалова
О фильме: «Все сложно» - именно такой статус мог бы поставить каждый из персонажей «Улицы» в новом сезоне. Их истории продолжаются, и то, что ждет героев в новых сериях, не ожидает никто. Ведь непредсказуемые сюжеты «Улицы» диктует сама жизнь! Любовные треугольники, трудные решения, сложный выбор, драма, любовь и деньги – проблемы жителей «Улицы» близки каждому зрителю. В новых сериях герои окажутся в интересных ситуациях, но смогут ли они выйти из них без драм и переживаний? Андрей и Лариса находятся в счастливом ожидании рождения ребенка. Но в какой-то момент каждый из них задаст себе вопрос: достаточно ли общего ребенка для того, чтобы создать семью? Каждый ответит по-своему, самонадеянностью, либо готовностью идти на компромисс. Андрей вновь окажется в любовном треугольнике. С одной стороны Лариса, с другой – Алиса, с которой он хочет остаться, но у которой слишком много тайн. А как известно, все тайное рано или поздно становится явным. В итоге Андрею придется не выбирать, а самому бороться за любовь… Катя и Соколов – это вечная проблема несвоевременности. Их любовные отношения вновь пройдут испытания необдуманными поступками. Соколов сделает предложение своей девушке Полине, убеждая себя, что она – идеальная женщина, которую нельзя упустить. Катя в отместку даст второй шанс Артему. Но смогут ли они построить любовь с кем-то на стороне или, наконец, поймут, что их не могут жить друг без друга? Тот же вопрос можно задать Ирке и Дэну, которые после своих любовных трагедий оказались в статусе свободных людей. Старая любовь, как известно, не ржавеет. Так сможет ли Ирка рассмотреть в Дэне именно того мужчину, который ей нужен? Интересные события произойдут в жизни Алисы, Артема, Ромы и Ксюхи, Тани и Влада, Кости и Ангелины, Аллы, Валеры – всех не перечислить! На «Улице» всё как в жизни: огорчения и утраты сменяются радостью и улыбками, предательства – новыми знакомствами, дружбой. Одни соседи женятся, другие уезжают навсегда. Главное, тебя не покидает чувство, что хочется туда вернуться, на родную «Улицу». Останется и одна из главных фишек «Улицы» — интеграция в сериал актуальных событий, происходящих в мире. Утром новости — вечером их обсуждение в сериале. Такого на российском телевидении еще не было!

Качество: WEBRip
Видео: XviD, ~ 1650 Кбит/с, 720x400, 25 кадр/с
Аудио: AC3, 2 ch, 192 Кбит/с
Продолжительность: 66 x ~ 00:22:00
Перевод: Не требуется
Cубтитры: нет

Скриншоты


MediaInfo

General
Complete name : C:\Users\DOM\Downloads\Ulica.S03.WEB-DLRip.25Kuzmich\Ulica.s03e01.WEB-DLRip.25Kuzmich.avi
Format : AVI
Format/Info : Audio Video Interleave
File size : 267 MiB
Duration : 20mn 10s
Overall bit rate : 1 852 Kbps
Writing application : VirtualDubMod 1.5.10.3 | www.virtualdub-fr.org || (build 2550/release)
Writing library : VirtualDubMod build 2550/release
Video
ID : 0
Format : MPEG-4 Visual
Format profile : Advanced Simple@L5
Format settings, BVOP : 1
Format settings, QPel : No
Format settings, GMC : No warppoints
Format settings, Matrix : Default (MPEG)
Codec ID : XVID
Codec ID/Hint : XviD
Duration : 20mn 10s
Bit rate : 1 650 Kbps
Width : 720 pixels
Height : 400 pixels
Display aspect ratio : 16:9
Frame rate : 25.000 fps
Color space : YUV
Chroma subsampling : 4:2:0
Bit depth : 8 bits
Scan type : Progressive
Compression mode : Lossy
Bits/(Pixel*Frame) : 0.229
Stream size : 238 MiB (89%)
Writing library : XviD 1.2.1 (UTC 2008-12-04)
Audio
ID : 1
Format : AC-3
Format/Info : Audio Coding 3
Mode extension : CM (complete main)
Codec ID : 2000
Duration : 20mn 9s
Bit rate mode : Constant
Bit rate : 192 Kbps
Channel(s) : 2 channels
Channel positions : Front: L R
Sampling rate : 48.0 KHz
Bit depth : 16 bits
Compression mode : Lossy
Stream size : 27.7 MiB (10%)
Alignment : Split accross interleaves
Interleave, duration : 40 ms (1.00 video frame)
Interleave, preload duration : 500 ms

Раздача ведётся путём добавления новых серий

Внимание! Раздача ведётся путём добавления новых серий; при каждом добавлении создаётся новый торрент.
Чтобы начать докачку новой серии, пользователям необходимо сделать следующее:
1. Остановить скачивание;
2. Удалить старый торрент у себя из клиента (старые серии удалять не надо);
3. Скачать новый торрент и запустить его у себя в клиенте вместо старого, при этом указать клиенту путь в старую папку куда и должно происходить скачивание новых серий. Ваш клиент при этом должен произвести хеширование (проверку) старой папки и будет докачивать только те серии, которых у вас ещё нет. Старые серии при этом не удаляются, а продолжают раздаваться! Eсли вы уже удалили старые серии, то предотвратить повторную закачку старых серий можно, отжав галочку в соответствующих местах при запуске нового торрента.
[Profile] [PM]
Display posts:    
Reply to topic

Current time is: 18-Sep 23:58

All times are UTC + 3



You cannot post new topics in this forum
You cannot reply to topics in this forum
You cannot edit your posts in this forum
You cannot delete your posts in this forum
You cannot vote in polls in this forum
You cannot attach files in this forum
You cannot download files in this forum