Улица [3 сезон: 1-66 серии из 66] (2018) WEBRip 720p

Reply to topic
 
Author Message

Nicodem ®

Gender: Male

Longevity: 6 months 6 days

Posts: 178

Post 23-Nov-2018 16:20

[Quote]

Улица
Год выпуска: 2018
Жанр: Драма, комедия, мелодрама, триллер
Выпущено: Россия, ГудСториМедиа
Режиссер: Жанна Кадникова, Николай Бурлак, Михаил Соловьёв (II)
В ролях: Лёля Баранова, Владимир Хацкевич, Екатерина Седик, Павел Савинков, Сергей Змичеревский, Артемий Падалка, Марина Богатова, Ксения Жданова, Марта Дромашко, Александр Терехов, Софья Реснянская, Анна Клинская, Василиса Немцова, Кристина Александрова, Евгения Туркова, Евгения Короткевич, Пётр Романов, Никита Лобанов, Евгений Шевченко (II), Артур Бичакиан, Джамболат Сланов, Светлана Саягова, Алёна Котова, Ольга Балль, Максим Михалёв, Валерий Романов, Марина Антонова, Евдокия Лаврухина, Дарья Баскакова-Левина, Даниил Добринский, Татьяна Митиенко, Кирилл Анохин, Юрий Николаенко, Сергей Долготович, Дарья Макарова, Татьяна Ивановская, Руслан Сабиров (II), Алёна Ан, Кирилл Снегирёв, Александр Обласов, Виктор Татаринов, Екатерина Хомчук, Денис Фомин, Никита Подскопный, Полина Канева, Татьяна Дорофеева, Анна Махлина, Максим Калужских, Дамир Янов, Пелагея Невзорова, Кристина Кузьмина, Наталья Попова, Вадим Ракитин, Алексей Савченко, Степан Бекетов, Дэни Аласания, Михаил Кремер, Яна Аршавская, Андрей Булатов, Алина Хруник, Екатерина Бабочкина, Александр Загоскин (II), Валерия Дергилёва, Леонид Ардо, Виталий Щербина, Анастасия Шаповалова
О фильме: «Все сложно» - именно такой статус мог бы поставить каждый из персонажей «Улицы» в новом сезоне. Их истории продолжаются, и то, что ждет героев в новых сериях, не ожидает никто. Ведь непредсказуемые сюжеты «Улицы» диктует сама жизнь! Любовные треугольники, трудные решения, сложный выбор, драма, любовь и деньги – проблемы жителей «Улицы» близки каждому зрителю. В новых сериях герои окажутся в интересных ситуациях, но смогут ли они выйти из них без драм и переживаний? Андрей и Лариса находятся в счастливом ожидании рождения ребенка. Но в какой-то момент каждый из них задаст себе вопрос: достаточно ли общего ребенка для того, чтобы создать семью? Каждый ответит по-своему, самонадеянностью, либо готовностью идти на компромисс. Андрей вновь окажется в любовном треугольнике. С одной стороны Лариса, с другой – Алиса, с которой он хочет остаться, но у которой слишком много тайн. А как известно, все тайное рано или поздно становится явным. В итоге Андрею придется не выбирать, а самому бороться за любовь… Катя и Соколов – это вечная проблема несвоевременности. Их любовные отношения вновь пройдут испытания необдуманными поступками. Соколов сделает предложение своей девушке Полине, убеждая себя, что она – идеальная женщина, которую нельзя упустить. Катя в отместку даст второй шанс Артему. Но смогут ли они построить любовь с кем-то на стороне или, наконец, поймут, что их не могут жить друг без друга? Тот же вопрос можно задать Ирке и Дэну, которые после своих любовных трагедий оказались в статусе свободных людей. Старая любовь, как известно, не ржавеет. Так сможет ли Ирка рассмотреть в Дэне именно того мужчину, который ей нужен? Интересные события произойдут в жизни Алисы, Артема, Ромы и Ксюхи, Тани и Влада, Кости и Ангелины, Аллы, Валеры – всех не перечислить! На «Улице» всё как в жизни: огорчения и утраты сменяются радостью и улыбками, предательства – новыми знакомствами, дружбой. Одни соседи женятся, другие уезжают навсегда. Главное, тебя не покидает чувство, что хочется туда вернуться, на родную «Улицу». Останется и одна из главных фишек «Улицы» — интеграция в сериал актуальных событий, происходящих в мире. Утром новости — вечером их обсуждение в сериале. Такого на российском телевидении еще не было!

Качество: WEBRip 720p
Видео: MPEG-4 AVC, ~ 4000 Кбит/с, 1280x720, 25 кадр/с
Аудио: AC3, 2 ch, 192 Кбит/с
Продолжительность: 66 x ~ 00:22:00
Перевод: Не требуется
Cубтитры: нет
Сэмпл

Скриншоты


MediaInfo

General
Unique ID : 251408425563519366196105165935391655562 (0xBD238062B940361397107484BDCDC68A)
Complete name : C:\Users\DOM\Downloads\Ulica.S.03.2018.WEB-DL.(720p).Nikolspup\Ulica.S.03.(01.seriya).2018.WEB-DL.(720p).Nikolspup.mkv
Format : Matroska
File size : 604 MiB
Duration : 20mn 10s
Overall bit rate : 4 188 Kbps
Encoded date : UTC 2018-09-10 19:34:13
Writing application : mkvmerge v7.8.0 ('River Man') 32bit built on Mar 27 2015 16:18:02
Writing library : libebml v1.3.1 + libmatroska v1.4.2
Video
ID : 1
Format : AVC
Format/Info : Advanced Video Codec
Format profile : High@L4.1
Format settings, CABAC : Yes
Format settings, ReFrames : 9 frames
Codec ID : V_MPEG4/ISO/AVC
Duration : 20mn 10s
Bit rate : 4 000 Kbps
Width : 1 280 pixels
Height : 720 pixels
Display aspect ratio : 16:9
Frame rate : 25.000 fps
Color space : YUV
Chroma subsampling : 4:2:0
Bit depth : 8 bits
Scan type : Progressive
Bits/(Pixel*Frame) : 0.174
Stream size : 564 MiB (93%)
Writing library : x264 core 146 r2538 121396c
Encoding settings : cabac=1 / ref=9 / deblock=1:-2:-1 / analyse=0x3:0x133 / me=umh / subme=9 / psy=1 / psy_rd=1.00:0.20 / mixed_ref=1 / me_range=32 / chroma_me=1 / trellis=2 / 8x8dct=1 / cqm=0 / deadzone=21,11 / fast_pskip=1 / chroma_qp_offset=-3 / threads=16 / lookahead_threads=8 / sliced_threads=0 / nr=0 / decimate=1 / interlaced=0 / bluray_compat=0 / constrained_intra=0 / bframes=11 / b_pyramid=2 / b_adapt=2 / b_bias=0 / direct=1 / weightb=1 / open_gop=0 / weightp=2 / keyint=250 / keyint_min=25 / scenecut=40 / intra_refresh=0 / rc=2pass / mbtree=0 / bitrate=4000 / ratetol=1.0 / qcomp=0.60 / qpmin=0 / qpmax=69 / qpstep=4 / cplxblur=20.0 / qblur=0.5 / ip_ratio=1.40 / pb_ratio=1.30 / aq=3:1.00
Color primaries : BT.709-5, BT.1361, IEC 61966-2-4, SMPTE RP177
Transfer characteristics : BT.709-5, BT.1361
Matrix coefficients : BT.709-5, BT.1361, IEC 61966-2-4 709, SMPTE RP177
Audio
ID : 2
Format : AC-3
Format/Info : Audio Coding 3
Mode extension : CM (complete main)
Codec ID : A_AC3
Duration : 20mn 10s
Bit rate mode : Constant
Bit rate : 192 Kbps
Channel(s) : 2 channels
Channel positions : Front: L R
Sampling rate : 48.0 KHz
Bit depth : 16 bits
Compression mode : Lossy
Stream size : 27.7 MiB (5%)
Language : Russian
[Profile] [PM]
Display posts:    
Reply to topic

Current time is: 23-May 21:04

All times are UTC + 3



You cannot post new topics in this forum
You cannot reply to topics in this forum
You cannot edit your posts in this forum
You cannot delete your posts in this forum
You cannot vote in polls in this forum
You cannot attach files in this forum
You cannot download files in this forum