Условный мент / Охта [5 сезон: 1-32 серии] (2023-2024) SATRip от Files-x

Reply to topic
 
Author Message

Nicodem ®

Gender: Male

Longevity: 5 years 5 months

Posts: 1422

Post 17-Dec-2023 21:38

[Quote]

Условный мент / Охта
Год выпуска: 2023-2024
Жанр: Детектив, приключения
Выпущено: Россия, Триикс Медиа
Режиссер: Андрей Коршунов, Кристина Кутчер, Анатолий Семёнов (V)
В ролях: Денис Рожков, Анастасия Тюнина, Алексей Нилов, Сергей Кошонин, Алексей Фокин, Егор Бакулин, Кирилл Балобан, Ольга Богданова, Ольга Кирсанова-Миропольская, Любовь Макеева, Инесса Перелыгина-Владимирова, Алексей Байдаков, Евгений Карпов, Денис Зайцев, Никита Рогов, Виталий Бисеров, Данила Воропаев, Дарья Паутова, Алексей Алфеев, Антон Пулит, Ариэль Ласкер, Данила Иванов, Евгений Антонов, Олег Жилин, Антон Падерин, Никита Брусов, Андрей Родимов, Мария Капустинская, Алексей Романович, Андрей Бодренков, Михаил Скачков, Юлия Филиппова (II), Олег Попов (II), Дмитрий Зайцев (V), Филипп Чевычелов, Юрий Сташин, Илья Ивахнов, Юлия Скороход, Евгений Михайленко, Валентин Корнезо, Тимур Гилязов, Светлана Бакулина, Евгений Тымченко, Азат Алимбаев, Виолетта Балакирева, Александр Иванов (XVII), Игорь Бедных, Мария Грицюк, Мария Петрик, Егор Щедров, Александр Власенко (II), Софья Юрко, Георгий Медведев, Дмитрий Мазин, Елена Азарко, Олег Флеер, Виталий Татаринович, Сергей Евсеев, Вячеслав Воронцов, Роман Мамонтов, Антон Емельянов-Молчанов, Анастасия Даниелянц, Алина Резвякова, Александра Сыдорук, Оксана Скакун, Роман Жилкин, Виктор Хозяинов, Николай Колосов, Роман Смирнов, Арсений Бедных
О фильме: Дмитрий Рыжов, чей отец погиб при исполнении, решает продолжить его дело по борьбе с преступностью. Честный и принципиальный сотрудник угро многим пришёлся не по душе. За превышение полномочий Рыжова отправляют на скамью подсудимых. Полиция лишается отличного сотрудника, который отправляется отбывать двухлетний срок. И хотя на свободу Дмитрий выходит по УДО намного раньше, оперативником ему больше не быть. Путь в полицию Рыжову теперь заказан, да он и сам не желает связываться с уголовным розыском, а идёт работать в коммунальный сектор. Но и здесь покоя бывшему оперативнику ждать не приходится. Хозяин жилкомсервиса, в который устроился Рыжов, крутит «левые» дела в паре с капитаном Тельцовым, прикрывающим махинации. Участковый этого участка Арина Гордеева знает о происходящем, и мириться с мошенническими схемами и коррупцией в рядах полиции не собирается. Знакомство с бывшим оперативником Рыжовым приводит к появлению тандема, который встаёт на защиту законности. А через какое-то время Дмитрий начинает испытывать к новой знакомой романтические чувства.

Качество: SATRip
Видео: XviD, ~ 1580 Кбит/с, 720x400, 25 кадр/с
Аудио: AC3, 2 ch, 192 Кбит/с
Продолжительность: 32 х 00:42:20
Перевод: Не требуется
Субтитры: Нет

Скриншоты



MediaInfo

General
Complete name : C:179.Условный мент.s05.E01.(2023).SATRip.by.Nicodem.Files-x.avi
Format : AVI
Format/Info : Audio Video Interleave
File size : 524 MiB
Duration : 41mn 7s
Overall bit rate : 1 781 Kbps
Writing application : VirtualDubMod 1.5.10.3 | www.virtualdub-fr.org || (build 2550/release)
Writing library : VirtualDubMod build 2550/release
Video
ID : 0
Format : MPEG-4 Visual
Format profile : Advanced Simple@L5
Format settings, BVOP : 1
Format settings, QPel : No
Format settings, GMC : No warppoints
Format settings, Matrix : Custom
Codec ID : XVID
Codec ID/Hint : XviD
Duration : 41mn 7s
Bit rate : 1 580 Kbps
Width : 720 pixels
Height : 400 pixels
Display aspect ratio : 16:9
Frame rate : 25.000 fps
Color space : YUV
Chroma subsampling : 4:2:0
Bit depth : 8 bits
Scan type : Progressive
Compression mode : Lossy
Bits/(Pixel*Frame) : 0.219
Stream size : 465 MiB (89%)
Writing library : XviD 73
Audio
ID : 1
Format : AC-3
Format/Info : Audio Coding 3
Mode extension : CM (complete main)
Codec ID : 2000
Duration : 41mn 7s
Bit rate mode : Constant
Bit rate : 192 Kbps
Channel(s) : 2 channels
Channel positions : Front: L R
Sampling rate : 48.0 KHz
Bit depth : 16 bits
Compression mode : Lossy
Stream size : 56.5 MiB (11%)
Alignment : Split accross interleaves
Interleave, duration : 40 ms (1.00 video frame)
Interleave, preload duration : 500 ms

Содержание

(179) 1 серия "Нежданное соседство"
(180) 2 серия "Сердцу не прикажешь"
(181) 3 серия "Отравленная жизнь"
(182) 4 серия "Хороший парень"
(183) 5 серия "Счастливое будущее"
(184) 6 серия "Семейный бизнес"
(185) 7 серия "Старая пластинка"
(186) 8 серия "Рыночные отношения"
(187) 9 серия "Инвестиционный бум"
(188) 10 серия "Дирижёр"
(189) 11 серия "Игра на деньги"
(190) 12 серия "Операция ликвидация"
(191) 13 серия "Семейные ценности"
(192) 14 серия "Помолвочное кольцо"
(193) 15 серия "Банда кроликов"
(194) 16 серия "Фейерверк"
(195) 17 серия "Марш-Мендельсона"
(196) 18 серия "Альфо-Самка"
(197) 19 серия "Шито-крыто"
(198) 20 серия "Полуостров сокровищ"
(199) 21 серия "Плоды просвещения"
(200) 22 серия "Квартирный вопрос"
(201) 23 серия "Повелитель труб"
(202) 24 серия "Аве Мария"
ВНИМАНИЕ!! НОВЫЕ СЕРИИ С 24 ФЕВРАЛЯ 2024 ГОДА
(203) 25 серия "Кубок желаний"
(204) 26 серия "Шашлыки на даче"
(205) 27 серия "Точка кипения"
(206) 28 серия "Охтинский гамбит"
(207) 29 серия "Открытая лига"
(208) 30 серия "Ворон ворону"
(209) 31 серия "Татуировка"
(210) 32 серия "Оперативное вмешательство"

Раздача ведётся путём добавления новых серий

Внимание! Раздача ведётся путём добавления новых серий; при каждом добавлении создаётся новый торрент.
Чтобы начать докачку новой серии, пользователям необходимо сделать следующее:
1. Остановить скачивание;
2. Удалить старый торрент у себя из клиента (старые серии удалять не надо);
3. Скачать новый торрент и запустить его у себя в клиенте вместо старого, при этом указать клиенту путь в старую папку куда и должно происходить скачивание новых серий. Ваш клиент при этом должен произвести хеширование (проверку) старой папки и будет докачивать только те серии, которых у вас ещё нет. Старые серии при этом не удаляются, а продолжают раздаваться! Eсли вы уже удалили старые серии, то предотвратить повторную закачку старых серий можно, отжав галочку в соответствующих местах при запуске нового торрента.
Релиз от:
[Profile] [PM]
Display posts:    
Reply to topic

Current time is: 20-Apr 16:01

All times are UTC + 3



You cannot post new topics in this forum
You cannot reply to topics in this forum
You cannot edit your posts in this forum
You cannot delete your posts in this forum
You cannot vote in polls in this forum
You cannot attach files in this forum
You cannot download files in this forum